Александр Федяев - Турбо-запуск товарного бизнеса за 1 день (2017)

Ответить на тему
 
Автор Сообщение

Yulya ®

Александр Федяев | Турбо-запуск товарного бизнеса за 1 день (2017) PCRec - Автор (режиссер): Александр Федяев
Производство: Александр Федяев
Жанр: Бизнес
Сайт автора
Описание:
КАК НАЧАТЬ ЗА 1 ДЕНЬ? Полагаю, вам не очень в это верится.
И другие «гуру товарного бизнеса», скорее всего, готовы убить меня за эти смелые заявления. Потому что я расскажу вам о методах, которые ВСЕ используют, но никто никогда о них прямо не говорит.
Все дело в том, что это сильно упрощает товарный бизнес и позволяет даже «зеленым» новичкам быстро проложить дорогу к успеху.
Есть простая модель турбо-продаж в товарном бизнесе, благодаря которой вы за 1 день начнете торговлю в Интернете на готовых рабочих схемах и чужом опыте.
НАПРИМЕР, НА СТАРТЕ ВЫ МОЖЕТЕ СЭКОНОМИТЬ 15-30 ДНЕЙ ЖИЗНИ И
ОКОЛО 50 000 РУБЛЕЙ НА СОВЕРШЕННО БАНАЛЬНЫХ ВЕЩАХ:
Не нужно долго выбирать товар и мониторить рынок - есть товары, которые продаются всегда (и с них удобно начинать хоть сейчас).
Необязательно делать дорогой сайт - я расскажу, как сделать за 500 рублей
Не нужно писать продающие тексты и составлять объявления - все уже есть в Интернете.
Вы можете обойтись без тизерных сетей, используя только 2-3 более простых рекламных канала (разберетесь сами, а потом делегируете другим).
Необязательно иметь десятки тысяч рублей, для старта достаточно и 5000 рублей.
Есть масса способов экономить от 30 до 60% на рекламу, о которых все тихо молчат.
Продолжительность: 02:56:49
Качество видео: PCRec
Видео: AVC/H.264, 1152x720, ~171 Kbps
Аудио: AAC, 2 ch, 126 kbps

Mediainfo:

Format                                   : MPEG-4
Format profile : Base Media / Version 2
Codec ID : mp42 (isom/mp42)
File size : 380 MiB
Duration : 2 h 56 min
Overall bit rate mode : Variable
Overall bit rate : 300 kb/s
Encoded date : UTC 2017-04-15 08:17:56
Tagged date : UTC 2017-04-15 08:17:56
gsst : 0
gstd : 10609940
Video
ID : 1
Format : AVC
Format/Info : Advanced Video Codec
Format profile : Main@L3.1
Format settings, CABAC : Yes
Format settings, ReFrames : 3 frames
Codec ID : avc1
Codec ID/Info : Advanced Video Coding
Duration : 2 h 56 min
Bit rate : 171 kb/s
Width : 1 152 pixels
Height : 720 pixels
Display aspect ratio : 16:10
Frame rate mode : Constant
Frame rate : 30.000 FPS
Color space : YUV
Chroma subsampling : 4:2:0
Bit depth : 8 bits
Scan type : Progressive
Bits/(Pixel*Frame) : 0.007
Stream size : 216 MiB (57%)
Title : ISO Media file produced by Google Inc.
Encoded date : UTC 2017-04-15 08:17:56
Tagged date : UTC 2017-04-15 08:17:56
Color range : Limited
Color primaries : BT.709
Transfer characteristics : BT.709
Matrix coefficients : BT.709
Audio
ID : 2
Format : AAC
Format/Info : Advanced Audio Codec
Format profile : LC
Codec ID : 40
Duration : 2 h 56 min
Bit rate mode : Variable
Bit rate : 126 kb/s
Channel(s) : 2 channels
Channel positions : Front: L R
Sampling rate : 44.1 kHz
Frame rate : 43.066 FPS (1024 spf)
Compression mode : Lossy
Stream size : 159 MiB (42%)
Title : ISO Media file produced by Google Inc.
Encoded date : UTC 2017-04-15 08:17:56
Tagged date : UTC 2017-04-15 08:17:56
Format : PDF
Format version : 1.5
File size : 61.7 KiB
Text
Format : PDF
Скриншоты:
Скачать .torrent

Для того, чтобы скачать торрент-файл

Александр Федяев - Турбо-запуск товарного бизнеса за 1 день (2017)

с нашего сайта, Вам необходимо Войти на сайт под своим логином! Если у Вас ещё нет логина, тогда Вам нужно сначала Зарегистрироваться!

Как скачивать? · Что такое торрент? · Рейтинг и ограничения

SergAS70

Для чего это тут? это рекламный тизер из ютуба. Настоящий и полный курс весит 15гб!
Показать сообщения:    
Ответить на тему

Александр Федяев - Турбо-запуск товарного бизнеса за 1 день (2017) скачать торрент (torrent), видеоуроки, тренинги, обучающее видео и видеокурсы

Текущее время: Сегодня 17:50

Часовой пояс: GMT + 4



Вы не можете начинать темы
Вы не можете отвечать на сообщения
Вы не можете редактировать свои сообщения
Вы не можете удалять свои сообщения
Вы не можете голосовать в опросах
Вы не можете прикреплять файлы к сообщениям
Вы не можете скачивать файлы