Олег Селифанов - Торги по банкротству по методу Шерлока Холмса (2017)

Ответить на тему
 
Автор Сообщение

Yulya ®

Олег Селифанов |Торги по банкротству по методу Шерлока Холмса (2017) PCRec - Автор (режиссер): Олег Селифанов
Жанр: Аукционы по банкротству
Описание:
«Как зарабатывать на торгах по банкротству по методу Шерлока Холмса, покупая автомобили, квартиры и другое имущество должников на 77% ниже рыночной стоимости?»
Академия торгов по банкротству - это первый проект по СНГ, рассказывающий, что такое торги по банкротству и как на них зарабатывать любому человеку, без специальных знаний и начального капитала!
Вы узнайте простые шаги, как начать зарабатывать на аукционах по банкротству, скупая объекты за 10-20% от их реальной стоимости!
Здесь вы найдете ответы на следующие вопросы, что такое: aукциoн пo бaнкрoтcтву, торги по банкротству, покупка недвижимости с аукциона по банкротству, аукцион недвижимости, банкротство физических лиц, торги имущества, электронные торги по банкротству, дебиторская задолженность.
Вы изучите и поймете: куда вложить деньги, как быстро заработать деньги в интернете, как инвестировать деньги.
Изучите особенности покупки объектов:
Дебиторской задолженности
Квартир и домов
Спец.техники
Недвижимости
Мы также подробно освещаем прибыльное участие в электронных торгах по банкротству!
Продолжительность: 03:15:30
Качество видео: PCRec
Видео: AVC/H.264, 1280x720, ~326 Кбит/сек
Аудио: AAC, 2 ch, 126 Кбит/сек

Mediainfo:

Общее
Полное имя : \Торги по банкротству_Селифанов\Аукционы по банкротству. Кейс №8 покупка лота с аукционов по банкротству в г Краснотурьинск.mp4
Формат : MPEG-4
Профиль формата : Base Media / Version 2
Идентификатор кодека : mp42 (isom/mp42)
Размер файла : 25,7 Мбайт
Продолжительность : 7 м. 53 с.
Режим общего битрейта : Переменный
Общий поток : 456 Кбит/сек
Дата кодирования : UTC 2016-08-20 03:34:10
Дата пометки : UTC 2016-08-20 03:34:10
gsst : 0
gstd : 473640
Видео
Идентификатор : 1
Формат : AVC
Формат/Информация : Advanced Video Codec
Профиль формата : Main@L3.1
Параметр CABAC формата : Да
Параметр ReFrames формата : 3 кадра
Идентификатор кодека : avc1
Идентификатор кодека/Информация : Advanced Video Coding
Продолжительность : 7 м. 53 с.
Битрейт : 326 Кбит/сек
Ширина : 1280 пикселей
Высота : 720 пикселей
Соотношение сторон : 16:9
Режим частоты кадров : Постоянный
Частота кадров : 29,970 (30000/1001) кадров/сек
Цветовое пространство : YUV
Субдискретизация насыщенности : 4:2:0
Битовая глубина : 8 бит
Тип развёртки : Прогрессивная
Бит/(Пиксели*Кадры) : 0.012
Размер потока : 18,4 Мбайт (72%)
Заголовок : ISO Media file produced by Google Inc.
Дата кодирования : UTC 2016-08-20 03:34:10
Дата пометки : UTC 2016-08-20 03:34:10
Аудио
Идентификатор : 2
Формат : AAC
Формат/Информация : Advanced Audio Codec
Профиль формата : LC
Идентификатор кодека : 40
Продолжительность : 7 м. 53 с.
Вид битрейта : Переменный
Битрейт : 126 Кбит/сек
Каналы : 2 канала
Расположение каналов : Front: L R
Частота : 44,1 КГц
Частота кадров : 43,066 кадра/сек (1024 spf)
Метод сжатия : С потерями
Размер потока : 7,09 Мбайт (28%)
Заголовок : ISO Media file produced by Google Inc.
Дата кодирования : UTC 2016-08-20 03:34:10
Дата пометки : UTC 2016-08-20 03:34:10
Скриншоты:
Скачать .torrent

Для того, чтобы скачать торрент-файл

Олег Селифанов - Торги по банкротству по методу Шерлока Холмса (2017)

с нашего сайта, Вам необходимо Войти на сайт под своим логином! Если у Вас ещё нет логина, тогда Вам нужно сначала Зарегистрироваться!

Как скачивать? · Что такое торрент? · Рейтинг и ограничения

Показать сообщения:    
Ответить на тему

Олег Селифанов - Торги по банкротству по методу Шерлока Холмса (2017) скачать торрент (torrent), видеоуроки, тренинги, обучающее видео и видеокурсы

Текущее время: Сегодня 00:21

Часовой пояс: GMT + 4



Вы не можете начинать темы
Вы не можете отвечать на сообщения
Вы не можете редактировать свои сообщения
Вы не можете удалять свои сообщения
Вы не можете голосовать в опросах
Вы не можете прикреплять файлы к сообщениям
Вы не можете скачивать файлы