Дмитрий Брыляков - Опционы и торговля без стопов (2016)

Ответить на тему
 
Автор Сообщение

Yulya ®

Дмитрий Брыляков | Опционы и торговля без стопов (2016) PCRec - Автор (режиссер): Дмитрий Брыляков
Производство: Info DVD
Жанр: Трейдинг,опционные контракты
Описание:
Про опционы вы, скорее всего, слышали. Да-да, это излюбленный инструмент опытных трейдеров — настоящих биржевых акул. Ведь именно на опционах многие из них делают свои самые высокие заработки.
«Профи на то и профи, чтобы разобраться и освоить этот рынок. Но вот «простым смертным» вход туда закрыт…», — можете сказать вы. На самом деле опционы — проще и доступнее, чем кажутся.
«Опционы и торговля без стопов: просто о сложном» — новый тренинг в записи от Дмитрия Брылякова. Менее чем за 3 часа вы начнете свободно ориентироваться в опционах!

Содержание

Вы узнаете :
1. Виды опционов
2. Какие опционы и на каком рынке работают
3. Правила торговли без рисков
4. Почему опционы надежно защищают от стоп-лосса
5. Что такое опцион в деньгах и вне денег
6. Когда и каким опционом нужно работать
7. Виды прибыльных опционных конструкций
8. Ликвидные опционы FORTS, которые приносят хорошие деньги
9. Правила покупки и продажи опционов
10. Тонкости опционной торговли
11. «Золотые правила», о которых нельзя забывать
Продолжительность: 02:09:33
Качество видео: PCRec
Видео: AVC/H.264, 1280x720, ~1644kbps
Аудио: AAC, 2 ch, 97kbps

Mediainfo:

Format                         : MPEG-4
Format profile : Base Media
Codec ID : isom (isom/iso2/avc1/mp41)
File size : 134 MiB
Duration : 10 min 41 s
Overall bit rate mode : Variable
Overall bit rate : 1 750 kb/s
Writing application : Lavf54.59.106
Video
ID : 1
Format : AVC
Format/Info : Advanced Video Codec
Format profile : High@L3.1
Format settings, CABAC : Yes
Format settings, ReFrames : 4 frames
Codec ID : avc1
Codec ID/Info : Advanced Video Coding
Duration : 10 min 41 s
Bit rate : 1 644 kb/s
Width : 1 280 pixels
Height : 720 pixels
Display aspect ratio : 16:9
Frame rate mode : Constant
Frame rate : 30.000 FPS
Color space : YUV
Chroma subsampling : 4:2:0
Bit depth : 8 bits
Scan type : Progressive
Bits/(Pixel*Frame) : 0.059
Stream size : 126 MiB (94%)
Writing library : x264 core 118
Encoding settings : cabac=1 / ref=3 / deblock=1:0:0 / analyse=0x3:0x113 / me=hex / subme=7 / psy=1 / psy_rd=1.00:0.00 / mixed_ref=1 / me_range=16 / chroma_me=1 / trellis=1 / 8x8dct=1 / cqm=0 / deadzone=21,11 / fast_pskip=1 / chroma_qp_offset=-2 / threads=10 / sliced_threads=0 / nr=0 / decimate=1 / interlaced=0 / bluray_compat=0 / constrained_intra=0 / bframes=3 / b_pyramid=2 / b_adapt=1 / b_bias=0 / direct=1 / weightb=1 / open_gop=0 / weightp=2 / keyint=25 / keyint_min=2 / scenecut=40 / intra_refresh=0 / rc_lookahead=25 / rc=crf / mbtree=1 / crf=22.0 / qcomp=0.60 / qpmin=0 / qpmax=69 / qpstep=4 / ip_ratio=1.40 / aq=1:1.00
Language : English
Audio
ID : 2
Format : AAC
Format/Info : Advanced Audio Codec
Format profile : LC
Codec ID : 40
Duration : 10 min 41 s
Bit rate mode : Variable
Bit rate : 96.0 kb/s
Maximum bit rate : 256 kb/s
Channel(s) : 2 channels
Channel positions : Front: L R
Sampling rate : 44.1 kHz
Frame rate : 43.066 FPS (1024 spf)
Compression mode : Lossy
Stream size : 7.43 MiB (6%)
Language : English
Default : Yes
Alternate group : 1
Video: MPEG4 Video (H264) 1280x720 30fps 1644kbps [V: English [eng] (h264 high L3.1, yuv420p, 1280x720, 1644 kb/s)]
Audio: AAC 44100Hz stereo 97kbps [A: SoundHandler [eng] (aac lc, 44100 Hz, stereo, 97 kb/s)]
Скриншоты:
Скачать .torrent

Для того, чтобы скачать торрент-файл

Дмитрий Брыляков - Опционы и торговля без стопов (2016)

с нашего сайта, Вам необходимо Войти на сайт под своим логином! Если у Вас ещё нет логина, тогда Вам нужно сначала Зарегистрироваться!

Как скачивать? · Что такое торрент? · Рейтинг и ограничения

Показать сообщения:    
Ответить на тему

Дмитрий Брыляков - Опционы и торговля без стопов (2016) скачать торрент (torrent), видеоуроки, тренинги, обучающее видео и видеокурсы

Текущее время: Сегодня 23:43

Часовой пояс: GMT + 4



Вы не можете начинать темы
Вы не можете отвечать на сообщения
Вы не можете редактировать свои сообщения
Вы не можете удалять свои сообщения
Вы не можете голосовать в опросах
Вы не можете прикреплять файлы к сообщениям
Вы не можете скачивать файлы