Специалист - Курс М6234 (М2791) Внедрение и поддержка аналитических сервисов Microsoft SQL Server 2008 R2/2005 (2011)

Ответить на тему
 
Автор Сообщение

Yulya ®

-Специалист - Курс М6234 (М2791) Внедрение и поддержка аналитических сервисов Microsoft SQL Server 2008 R2/2005 (2011)- Автор (режиссер): Специалист
Преподаватель: Федор Анатольевич Самородов
Жанр: Обучающие видео-уроки
Продолжительность: 09:18:32
Качество видео: PCRec
Видеокодек: G2M4
Битрейт видео: ~114 - 27600 kb/s
Размер кадра: 1024x768
Аудиокодек: WMA
Битрейт аудио: 48 kb/s, 1 Ch
Описание:
Цель курса:
Освоение функций и возможностей Microsoft SQL Server 2008 R2, предназначенных для внедрения и поддержки многомерных баз данных (OLAP) и механизмов интеллектуального анализа данных (Data Mining).
Курс предназначен для администраторов и разработчиков многомерных баз данных и систем бизнес-анализа.
По окончании курса Вы будете уметь:
Создание решения для многомерного анализа данных
Работа с размерностями OLAP-кубов
Работа с мерами и группами мер для OLAP-кубов
Составление многомерных запросов (MDX-query) для извлечения данных из кубов
Настройка OLAP-кубов
Настройка безопасности многомерных баз данных
Поддержка многомерных баз данных
Создание решений по добыче данных и поиску скрытых закономерностей (Data Mining)

Программа курса:

Модуль 1. Введение в Microsoft SQL Server 2005 Analysis Services
Обзор решения для анализа данных
Обзор Microsoft SQL Server 2008 R2 Analysis Services
Установка Microsoft SQL Server 2008 R2 Analysis Services
Модуль 2. Создание решения для многомерного анализа
Разработка аналитического решения
Источники данных (Data Sources) и представления источников данных (Data Source Views)
Создание и модификация кубов
Модуль 3. Определение размерностей
Настройка размерностей
Определение иерархий
Настройка связей между атрибутами
Сортирующие и группирующие атрибуты
Модуль 4. Настройка мер и групп мер
Работа с мерами
Построение сложных связей между мерами и размерностями
Работа с мерными группами
Настройка хранения мерных групп
Модуль 5. Построение многомерных запросов
Основы MDX-запросов
Сечение и сжатие куба
Работа с кортежами и множествами
Работа с фильтрами
Сортировка результатов MDX-запросов
Создание вычислений (calculations) для куба
Использование вычисляемых членов
Использование именованных наборов
Модуль 6. Настройка расширенной функциональности куба
Ключевые индикаторы производительности (KPI)
Использование KPI в MDX-запросах
Виды действий (Actions) и их использование
Перспективы куба
Языковые трансляции
Модуль 7. Развёртывание и настройка безопасности аналитической базы данных
Развёртывание аналитической базы данных
Использование сценариев для развёртывания баз данных
Настройка безопасности для аналитической базы данных
Разграничение доступа к ячейкам и срезам куба
Модуль 8. Поддержка аналитического решения
Настройка процессинга
Журналирование, мониторинг и оптимизация
Использование профайлера и протокола запросов
Резервное копирование и восстановление
Модуль 9. Введение в Data Mining
Обзор технологии добычи данных (Data Mining)
Создание решения для извлечения данных
Выбор алгоритма для извлечения данных
Тестирование моделей добычи данных

Дополнительная информация:

Кодек G2M4 для воспроизведения данного видео прилагается в отдельной папке.

MediaInfo:

Код:
Общее
Полное имя                               : C:\[Специалист] М6234 (М2791) Внедрение и поддержка аналитических сервисов Microsoft SQL Server 2008 R2 - 2011\m6234_1.avi
Формат                                   : Windows Media
Размер файла                             : 77,1 Мбайт
Продолжительность                        : 1 ч. 13 м.
Режим общего битрейта                    : Переменный
Общий поток                              : 147 Кбит/сек
Максимальный общий битрейт               : 296 Кбит/сек
Дата кодирования                         : UTC 2011-11-29 19:18:23.328
Программа кодирования                    :  4.8 Build 723 / GoToMeeting
BitRateFrom the writer                   : 162371
Audio samples                            : 87011
Video samples                            : 54263
recording time                           : Ср, 30 ноя 2011 01:16:03 Russian Standard Time
Видео
Идентификатор                            : 3
Формат                                   : G2M4
Идентификатор кодека                     : G2M4
Вид битрейта                             : Переменный
Битрейт                                  : 114 Кбит/сек
Ширина                                   : 1024 пикселя
Высота                                   : 768 пикселей
Соотношение сторон                       : 4:3
Режим частоты кадров                     : Переменный
Номинальная частота кадров               : 29,970 кадров/сек
Битовая глубина                          : 8 бит
Язык                                     : Russian (RU)
Аудио
Идентификатор                            : 1
Формат                                   : WMA
Версия формата                           : Version 2
Идентификатор кодека                     : 161
Идентификатор кодека/Информация          : Windows Media Audio
Описание кодека                          : Windows Media Audio 9 -  48 kbps, 44 kHz, mono 1-pass CBR
Продолжительность                        : 1 ч. 13 м.
Вид битрейта                             : Постоянный
Битрейт                                  : 48,0 Кбит/сек
Каналы                                   : 1 канал
Частота                                  : 44,1 КГц
Битовая глубина                          : 16 бит
Размер потока                            : 25,2 Мбайт (33%)
Язык                                     : Russian
Код:
Общее
Полное имя                               : C:\[Специалист] М6234 (М2791) Внедрение и поддержка аналитических сервисов Microsoft SQL Server 2008 R2 - 2011\m6234_2.avi
Формат                                   : Windows Media
Размер файла                             : 141 Мбайт
Продолжительность                        : 1 ч. 26 м.
Режим общего битрейта                    : Переменный
Общий поток                              : 229 Кбит/сек
Максимальный общий битрейт               : 27,9 Мбит/сек
Дата кодирования                         : UTC 2012-03-21 07:53:38.427
Видео
Идентификатор                            : 3
Формат                                   : G2M4
Идентификатор кодека                     : G2M4
Вид битрейта                             : Переменный
Битрейт                                  : 27,6 Мбит/сек
Ширина                                   : 1024 пикселя
Высота                                   : 768 пикселей
Соотношение сторон                       : 4:3
Режим частоты кадров                     : Переменный
Номинальная частота кадров               : 29,970 кадров/сек
Битовая глубина                          : 8 бит
Аудио
Идентификатор                            : 1
Формат                                   : WMA
Версия формата                           : Version 2
Идентификатор кодека                     : 161
Идентификатор кодека/Информация          : Windows Media Audio
Описание кодека                          : Windows Media Audio V7
Продолжительность                        : 1 ч. 26 м.
Вид битрейта                             : Постоянный
Битрейт                                  : 48,0 Кбит/сек
Каналы                                   : 1 канал
Частота                                  : 44,1 КГц
Битовая глубина                          : 16 бит
Размер потока                            : 29,6 Мбайт (21%)
Скриншоты:
Скачать .torrent

Для того, чтобы скачать торрент-файл

Специалист - Курс М6234 (М2791) Внедрение и поддержка аналитических сервисов Microsoft SQL Server 2008 R2/2005 (2011)

с нашего сайта, Вам необходимо Войти на сайт под своим логином! Если у Вас ещё нет логина, тогда Вам нужно сначала Зарегистрироваться!

Как скачивать? · Что такое торрент? · Рейтинг и ограничения

Показать сообщения:    
Ответить на тему

Специалист - Курс М6234 (М2791) Внедрение и поддержка аналитических сервисов Microsoft SQL Server 2008 R2/2005 (2011) скачать торрент (torrent), видеоуроки, тренинги, обучающее видео и видеокурсы

Текущее время: Сегодня 13:39

Часовой пояс: GMT + 4



Вы не можете начинать темы
Вы не можете отвечать на сообщения
Вы не можете редактировать свои сообщения
Вы не можете удалять свои сообщения
Вы не можете голосовать в опросах
Вы не можете прикреплять файлы к сообщениям
Вы не можете скачивать файлы