Lynda - Топ 10 проблем маркетинга (2016)

Ответить на тему
 
Автор Сообщение

Yulya ®

Lynda | Топ 10 проблем маркетинга (2016) PCRec [EN]- Автор (режиссер): Дрю Бойд / Drew Boyd
Производство: Lynda
Жанр: Видеокурс, лекция
Описание:
Маркетинг – это мастерство. Выстраивание отношений с компаниями, посредниками и потребителями, обсуждение цен и договоров, развитие бизнеса – все это требует навыка.
Дрю Бойд – маркетолог с 30-летним стажем и опытом, подчерпнутым из работы с профессионалами мирового класса.
В этом курсе он анализирует 10 самых сложных ситуаций, в которых может оказаться маркетолог, и рассказывает, как из них выйти.
Каждое решение он излагает менее чем за 5 минут – даже самый занятый профессионал сможет выкроить время, чтобы познакомиться с его советами и оценить их эффективность в работе.

Список лекций

01. Трудности с ценообразованием
02. Найм сотрудников
03. Отношения между группами по продажам и маркетингу
04. Брендовый хаос
05. Пропуск ключевых трендов
06. Неверные перспективы
07. Потеря лояльности клиентов
08. Сопротивление нововведениям
09. Как не потерять место за столом
10. Развитие компании
Продолжительность: 00:37:00
Качество видео: PCRec
Язык: Английский
Cубтитры: Русские
Видео: AVC/H.264, 1280x720, ~2300 Кбит/сек
Аудио: AAC, 2 ch, 320 Кбит/сек

Mediainfo:

Формат                                   : MPEG-4
Профиль формата : Base Media / Version 2
Идентификатор кодека : mp42 (mp42/isom)
Размер файла : 68,9 Мбайт
Продолжительность : 3 м. 36 с.
Режим общего битрейта : Постоянный
Общий поток : 2669 Кбит/сек
Дата кодирования : UTC 2016-04-22 09:05:48
Дата пометки : UTC 2016-04-22 09:05:48
Видео
Идентификатор : 1
Формат : AVC
Формат/Информация : Advanced Video Codec
Профиль формата : Main@L4
Параметр CABAC формата : Да
Параметр ReFrames формата : 5 кадров
Идентификатор кодека : avc1
Идентификатор кодека/Информация : Advanced Video Coding
Вид битрейта : Постоянный
Битрейт : 2300 Кбит/сек / 2300 Кбит/сек
Максимальный битрейт : 12,1 Мбит/сек
Ширина : 1280 пикселей
Высота : 720 пикселей
Соотношение сторон : 16:9
Режим частоты кадров : Постоянный
Частота кадров : 29,970 кадров/сек
Цветовое пространство : YUV
Субдискретизация насыщенности : 4:2:0
Битовая глубина : 8 бит
Тип развёртки : Прогрессивная
Бит/(Пиксели*Кадры) : 0.083
Размер потока : 60,5 Мбайт (88%)
Заголовок : Telestream Inc. Dib Library - ReleaseVantage 2014.59.138974
Библиотека кодирования : x264 core 129
Язык : English
Дата кодирования : UTC 2016-04-22 09:05:48
Дата пометки : UTC 2016-04-22 09:05:48
Аудио
Идентификатор : 2
Формат : AAC
Формат/Информация : Advanced Audio Codec
Профиль формата : LC
Идентификатор кодека : 40
Продолжительность : 3 м. 36 с.
Вид битрейта : Постоянный
Битрейт : 320 Кбит/сек
Номинальный битрейт : 128 Кбит/сек
Каналы : 2 канала
Расположение каналов : Front: L R
Частота : 48,0 КГц
Частота кадров : 46,875 кадров/сек (1024 spf)
Метод сжатия : С потерями
Размер потока : 8,26 Мбайт (12%)
Заголовок : Telestream Inc. Dib Library - ReleaseVantage 2014.59.138974
Язык : English
Дата кодирования : UTC 2016-04-22 09:05:48
Дата пометки : UTC 2016-04-22 09:05:48
Скриншоты:
Скачать .torrent

Для того, чтобы скачать торрент-файл

Lynda - Топ 10 проблем маркетинга (2016)

с нашего сайта, Вам необходимо Войти на сайт под своим логином! Если у Вас ещё нет логина, тогда Вам нужно сначала Зарегистрироваться!

Как скачивать? · Что такое торрент? · Рейтинг и ограничения

Показать сообщения:    
Ответить на тему

Lynda - Топ 10 проблем маркетинга (2016) скачать торрент (torrent), видеоуроки, тренинги, обучающее видео и видеокурсы

Текущее время: Сегодня 19:28

Часовой пояс: GMT + 4



Вы не можете начинать темы
Вы не можете отвечать на сообщения
Вы не можете редактировать свои сообщения
Вы не можете удалять свои сообщения
Вы не можете голосовать в опросах
Вы не можете прикреплять файлы к сообщениям
Вы не можете скачивать файлы