Anton Kreil (Антон Крил) - Professional Trading (Профессиональный трейдинг) (2013-2015)

Ответить на тему
 
Автор Сообщение

Yulya ®

Anton Kreil (Антон Крил) | Professional Trading (Профессиональный трейдинг) (2013-2015) PCRec - Автор (режиссер): ANTON KREIL (Антон Крил)
Жанр: Трейдинг,управление капиталом,портфельный менеджер
Перевод: Закадровый на русском языке. Поверх оригинала ENG
Описание:
Антон Крил — профессиональный трейдер, бывший сотрудник мировых банков маркет-мейкеров Goldman Sachs, Lehman Brothers и JP Morgan. Карьеру трейдера начал в 16 лет, открыв торговый счет у фондового брокера. К двадцати годам, еще проходя учебу в университете, он сумел собрать внушительную торговую статистику — и в итоге был приглашен на работу в Goldman Sachs. На первом этапе Антон работал в офисе Goldman на Уолл-стрит. После он вернулся в Лондон для работы в отделе, торгующем европейскими акциями. В 26 лет он становится вице-президентом отдела Европейских фондовых рынков банка маркет-мейкера JP Morgan. В 28-летнем возрасте в мае 2007 года Антон оставляет карьеру в инвестиционной банковской деятельности. После отдыха, за который он успел облететь весь мир, в 2008 году он возвращается в Лондон для съёмок реалити-шоу «Трейдеры на миллион» («Million DollarTraders») на канале BBC. Шоу вышло на экраны в 2009 году и сразу же стало мировым культом. Так Антон стал известной фигурой во время финансового кризиса.
Сейчас Антон живет в Лондоне и является управляющим партнером Института трейдинга и управления портфелем — www.instutrade.com
За годы работы на рынках он подготовил огромное количество трейдеров, ставших профессионалами в своем деле. В Институте трейдинга и управления портфелем Антон преподает свои торговые методы, проводит семинары, а также ведет эксклюзивную программу индивидуального обучения.

Список файлов видео

1 – Вводное занятие.Статистика
2 – Профессиональный трейдер vs Ритейл
3 – Распределение и вычисление вероятностей
4 - Распределение и вычисление вероятностей 2
5 – Анализ Волатильности 1
6 - Анализ Волатильности 2
7 - Анализ Волатильности 3 (Практика в Excel)
8 – Концептуальная модель W.I.S.H ч.1
9 - Концептуальная модель W.I.S.H ч.2
10 – Соотносим Индикаторы 1
11 – Соотносим Индикаторы 2
12 - Соотносим Индикаторы 3
13 - Соотносим Индикаторы 4
14 - Соотносим индикаторы 5
15 - Соотносим индикаторы 6 (Практика в Excel)
16 - Соотносим индикаторы 7
17 - Повторим все, что мы выучили на данный момент
18 - Прокладываем путь от общего к Частному 1: Практика в Excel
19 - Прокладываем путь от общего к Частному 2: Реальные примеры
20 - Курирование 1: Задействуем капитал
21 - Курирование 2: Задействуем капитал (Практика в Excel)
22 - Выработка дисциплины 1: Риск-менеджмент (Практика в Excel)
23 - Выработка дисциплины 2: Риск-менеджмент (Практика в Excel)
24 - Выработка дисциплины 3: Риск-менеджмент (Практика в Excel)
25 - Выработка дисциплины 4: Статистика самоанализа
26 - Подход дэй-трейдинга: Дисциплина и ресурсы
27 - Торговый план: Пошаговое применение
28 - Подготовка к экзамену

Список файлов Эксель

EURUSD_Распределение Прибылей
FTSE100_Распределение Прибылей
GBPUSD_ Распределение Прибылей
S&P500_ Распределение
S&P500_ Распределение Прибылей за квартал
WTI_ Распределение Прибылей
Подразумеваемая Вол.
ATR_SP500
EURUSD_ATR
GBPUSD_ATR_Месячные Данные
Heinz_ATR
S&P500_ATR
Мировой ВВП
Исторический ВВП США и Великобритании
SP500_vs_ВВП
Промышленный Индекс ISM
ISM_SP500
ISM_Картина Мира_Шаблон для создания
ISM-VS_ВВП
UMCSI
UMCSI_VS_ВВП
Разрешения на начало постройки и завершение
Разрешение на постройку_VS_ВВП
Товары длительного использования
ESR
Промышленное производство
Заявки на пособия по безработице
Статистика компаний Европы
Европейский Экономический Индикатор Настроений 1
Европейский Экономический Индикатор Настроений 2
Китай_PMI
США_ЕС_Китай_ВВП
GS_JPM
Состовляющие сектора США_Европа
Анализ Сектора
Примеры спрэд трейдов
Статистика компаний_Aus_NZ_Can
Статистика компаний_Развивающиеся рынки
Статистика компаний_Европа
Статистика компаний_Индия
Статистика компаний_Япония
Статистика компаний_США
Статистика компаний_Гонк-Конг
Вотчлист Пример
Вотчлист_Спреды
ATR_SP500
ATR_SP500_GS_JPM
GS_JPM
Бета Хеджинг_Мультиактивы
Бета Хеджинг
Риск_Маржа
Тематические Беты
Вотчлист Пример
Подсчет Heinz Бета
Непромышленный индекс ISM
Критерий Кэлли
VIX_vs_SP500_Move

Список файлов PDF

Распределение прибылей_пошаговый гид - Не переведен!
Подразумеваемая волатильность_пошаговый гид - Переведен частично!
Средний истинный диапазон_пошаговый гид - Переведен частично!
Торговля по спрэдам_пошаговый гид - Переведен частично!
Подсчет Бэты Хайнц_пошаговый гид - Не переведен!
Лучшие методики Дэй-трейдинга - Полностью переведен!
Продолжительность: 23:48:10
Качество видео: PCRec
Видео: AVC/H.264, 640x360, ~548kbps
Аудио: AAC, 2 ch, 62kbps

Mediainfo:

Format                                   : MPEG-4
Format profile : Base Media / Version 2
Codec ID : mp42 (isom/iso2/avc1/mp41/mp42)
File size : 220 MiB
Duration : 46 min 13 s
Overall bit rate : 666 kb/s
Writing application : Lavf54.29.104
Video
ID : 1
Format : AVC
Format/Info : Advanced Video Codec
Format profile : Main@L3
Format settings, CABAC : Yes
Format settings, ReFrames : 3 frames
Codec ID : avc1
Codec ID/Info : Advanced Video Coding
Duration : 46 min 13 s
Bit rate : 601 kb/s
Nominal bit rate : 700 kb/s
Width : 640 pixels
Height : 360 pixels
Display aspect ratio : 16:9
Frame rate mode : Constant
Frame rate : 30.000 FPS
Color space : YUV
Chroma subsampling : 4:2:0
Bit depth : 8 bits
Scan type : Progressive
Bits/(Pixel*Frame) : 0.087
Stream size : 199 MiB (90%)
Writing library : x264 core 136
Encoding settings : cabac=1 / ref=3 / deblock=1:0:0 / analyse=0x1:0x111 / me=hex / subme=6 / psy=1 / psy_rd=1.00:0.00 / mixed_ref=1 / me_range=16 / chroma_me=1 / trellis=1 / 8x8dct=0 / cqm=0 / deadzone=21,11 / fast_pskip=1 / chroma_qp_offset=-2 / threads=36 / lookahead_threads=2 / sliced_threads=0 / nr=0 / decimate=1 / interlaced=0 / bluray_compat=0 / constrained_intra=0 / bframes=3 / b_pyramid=0 / b_adapt=1 / b_bias=0 / direct=1 / weightb=1 / open_gop=0 / weightp=2 / keyint=150 / keyint_min=25 / scenecut=40 / intra_refresh=0 / rc_lookahead=40 / rc=abr / mbtree=1 / bitrate=700 / ratetol=1.0 / qcomp=0.60 / qpmin=10 / qpmax=51 / qpstep=4 / ip_ratio=1.41 / aq=1:1.00
Tagged date : UTC 2015-04-15 21:39:04
Audio
ID : 2
Format : AAC
Format/Info : Advanced Audio Codec
Format profile : HE-AAC / LC
Codec ID : 40
Duration : 46 min 13 s
Bit rate mode : Constant
Bit rate : 62.8 kb/s
Channel(s) : 2 channels
Channel positions : Front: L R
Sampling rate : 44.1 kHz / 22.05 kHz
Frame rate : 21.533 FPS (1024 spf)
Compression mode : Lossy
Stream size : 20.8 MiB (9%)
Default : Yes
Alternate group : 1
Tagged date : UTC 2015-04-15 21:39:04
Скриншоты:
Скачать .torrent

Для того, чтобы скачать торрент-файл

Anton Kreil (Антон Крил) - Professional Trading (Профессиональный трейдинг) (2013-2015)

с нашего сайта, Вам необходимо Войти на сайт под своим логином! Если у Вас ещё нет логина, тогда Вам нужно сначала Зарегистрироваться!

Как скачивать? · Что такое торрент? · Рейтинг и ограничения

Показать сообщения:    
Ответить на тему

Anton Kreil (Антон Крил) - Professional Trading (Профессиональный трейдинг) (2013-2015) скачать торрент (torrent), видеоуроки, тренинги, обучающее видео и видеокурсы

Текущее время: Сегодня 16:51

Часовой пояс: GMT + 4



Вы не можете начинать темы
Вы не можете отвечать на сообщения
Вы не можете редактировать свои сообщения
Вы не можете удалять свои сообщения
Вы не можете голосовать в опросах
Вы не можете прикреплять файлы к сообщениям
Вы не можете скачивать файлы