Дмитрий Ковпак - Бизнес с Китаем за 2 месяца коучинг 17.0 Часть 2 [Версия PLATINUM+VIP] (2016)

Ответить на тему
 
Автор Сообщение

Yulya ®

Димка Ковпак | Бизнес с Китаем за 2 месяца коучинг 17.0 Часть 2 [Версия PLATINUM+VIP] (2016) PCRec - Автор (режиссер): Дмитрий Ковпак
Жанр: Бизнес с Китаем
Описание:
ВОТ ЧЕМУ ВЫ НАУЧИТЕСЬ ЗА 60 ДНЕЙ ТРЕНИНГА:
Находить прибыльные товары, как в Китае, так и в своей стране
Находить поставщиков в Китае и договариваться про поставки
Доставлять коммерческие партии, используя все способы доставки
Создавать продающие сайты даже своими руками
Настраивать рекламные кампании в Direct, AdWords, ВК, FB, Тизерных сетях,
получать бесплатный трафик, использовать E-mail маркетинг...
Создавать оптовые предложения и настраивать оптовый канал продаж
Собирать лояльную команду и увеличивать бизнес-процесс
Управлять процессами и разбираться в юридических деталях
И ещё благодаря прямым контактам:
Использовать прямые контакты поставщиков в Китае
Работать напрямую с Карго перевозчиками
Использовать агентов в Китае...
И ещё благодаря закрытой группе:
Получать постоянную поддержку в группе коучинга и лично от меня
Испытывать яростное желание богатеть рядом с такими же, как и вы
Использовать идеи ребят из других стран и городов
Находить партнеров среди тех, кто уже учился ранее
И еще, очень много всего, что связано с созданием мощного бизнеса, но не влезло на эту страницу
Продолжительность: 48:47:12
Качество видео: PCRec
Видео: AVC/H.264, 1280x720, ~632kbps
Аудио: AAC, 2 ch, 235kbps

Mediainfo:

Video: MPEG4 Video (H264) 1280x720 30fps 632kbps [V: L-SMASH Video Handler (h264 high L3.2, yuv420p, 1280x720, 632 kb/s)]
Audio: AAC 48000Hz stereo 235kbps [A: L-SMASH Audio Handler (aac lc, 48000 Hz, stereo, 235 kb/s)]
Format : MPEG-4
Format profile : Base Media / Version 2
Codec ID : mp42 (mp42/mp41/isom/avc1)
File size : 1.04 GiB
Duration : 2 h 50 min
Overall bit rate mode : Variable
Overall bit rate : 872 kb/s
Encoded date : UTC 2016-09-14 00:11:46
Tagged date : UTC 2016-09-14 00:11:46
Video
ID : 1
Format : AVC
Format/Info : Advanced Video Codec
Format profile : High@L3.2
Format settings, CABAC : Yes
Format settings, ReFrames : 5 frames
Codec ID : avc1
Codec ID/Info : Advanced Video Coding
Duration : 2 h 50 min
Bit rate : 633 kb/s
Width : 1 280 pixels
Height : 720 pixels
Display aspect ratio : 16:9
Frame rate mode : Constant
Frame rate : 30.000 FPS
Color space : YUV
Chroma subsampling : 4:2:0
Bit depth : 8 bits
Scan type : Progressive
Bits/(Pixel*Frame) : 0.023
Stream size : 774 MiB (73%)
Writing library : x264 core 148 r10 3f5ed56
Encoding settings : cabac=1 / ref=5 / deblock=1:0:0 / analyse=0x3:0x113 / me=umh / subme=8 / psy=1 / psy_rd=1.00:0.00 / mixed_ref=1 / me_range=16 / chroma_me=1 / trellis=1 / 8x8dct=1 / cqm=0 / deadzone=21,11 / fast_pskip=1 / chroma_qp_offset=-2 / threads=22 / lookahead_threads=3 / sliced_threads=0 / nr=0 / decimate=1 / interlaced=0 / bluray_compat=0 / stitchable=1 / constrained_intra=0 / bframes=3 / b_pyramid=2 / b_adapt=2 / b_bias=0 / direct=3 / weightb=1 / open_gop=0 / weightp=2 / keyint=infinite / keyint_min=30 / scenecut=40 / intra_refresh=0 / rc_lookahead=50 / rc=crf / mbtree=1 / crf=20.0 / qcomp=0.60 / qpmin=5 / qpmax=69 / qpstep=4 / vbv_maxrate=2750 / vbv_bufsize=7500 / crf_max=0.0 / nal_hrd=none / filler=0 / ip_ratio=1.40 / aq=1:1.00
Encoded date : UTC 2016-09-14 00:11:46
Tagged date : UTC 2016-09-14 00:11:46
Color range : Limited
Color primaries : BT.709
Transfer characteristics : BT.709
Matrix coefficients : BT.709
Audio
ID : 2
Format : AAC
Format/Info : Advanced Audio Codec
Format profile : LC
Codec ID : 40
Duration : 2 h 50 min
Bit rate mode : Variable
Bit rate : 235 kb/s
Channel(s) : 2 channels
Channel positions : Front: L R
Sampling rate : 48.0 kHz
Frame rate : 46.875 FPS (1024 spf)
Compression mode : Lossy
Stream size : 288 MiB (27%)
Encoded date : UTC 2016-09-14 00:11:46
Tagged date : UTC 2016-09-14 00:11:46
Скриншоты:
Скачать .torrent

Для того, чтобы скачать торрент-файл

Дмитрий Ковпак - Бизнес с Китаем за 2 месяца коучинг 17.0 Часть 2 [Версия PLATINUM+VIP] (2016)

с нашего сайта, Вам необходимо Войти на сайт под своим логином! Если у Вас ещё нет логина, тогда Вам нужно сначала Зарегистрироваться!

Как скачивать? · Что такое торрент? · Рейтинг и ограничения

Показать сообщения:    
Ответить на тему

Дмитрий Ковпак - Бизнес с Китаем за 2 месяца коучинг 17.0 Часть 2 [Версия PLATINUM+VIP] (2016) скачать торрент (torrent), видеоуроки, тренинги, обучающее видео и видеокурсы

Текущее время: Сегодня 19:54

Часовой пояс: GMT + 4



Вы не можете начинать темы
Вы не можете отвечать на сообщения
Вы не можете редактировать свои сообщения
Вы не можете удалять свои сообщения
Вы не можете голосовать в опросах
Вы не можете прикреплять файлы к сообщениям
Вы не можете скачивать файлы