Дмитрий Ковпак - Бизнес с Китаем за 2 месяца коучинг 16.0 [Версия PLATINUM+VIP] (2016)

Ответить на тему
 
Автор Сообщение

Yulya ®

Димка Ковпак | Бизнес с Китаем за 2 месяца коучинг 16.0 [Версия PLATINUM+VIP] (2016) PCRec - Автор (режиссер): Дмитрий Ковпак
Жанр: Бизнес с Китаем
Описание:
ВОТ ЧЕМУ ВЫ НАУЧИТЕСЬ ЗА 60 ДНЕЙ ТРЕНИНГА:
Находить прибыльные товары, как в Китае, так и в своей стране
Находить поставщиков в Китае и договариваться про поставки
Доставлять коммерческие партии, используя все способы доставки
Создавать продающие сайты даже своими руками
Настраивать рекламные кампании в Direct, AdWords, ВК, FB, Тизерных сетях,
получать бесплатный трафик, использовать E-mail маркетинг...
Создавать оптовые предложения и настраивать оптовый канал продаж
Собирать лояльную команду и увеличивать бизнес-процесс
Управлять процессами и разбираться в юридических деталях
И ещё благодаря прямым контактам:
Использовать прямые контакты поставщиков в Китае
Работать напрямую с Карго перевозчиками
Использовать агентов в Китае...
И ещё благодаря закрытой группе:
Получать постоянную поддержку в группе коучинга и лично от меня
Испытывать яростное желание богатеть рядом с такими же, как и вы
Использовать идеи ребят из других стран и городов
Находить партнеров среди тех, кто уже учился ранее
И еще, очень много всего, что связано с созданием мощного бизнеса, но не влезло на эту страницу
Продолжительность: 40:45:25
Качество видео: PCRec
Видео: AVC/H.264, 1280x720, ~1032kbps
Аудио: AAC, 2 ch, 235kbps

Mediainfo:

Format                      : MPEG-4
Format profile : Base Media
Codec ID : isom (isom/iso2/avc1/mp41)
File size : 1.41 GiB
Duration : 2 h 38 min
Overall bit rate : 1 274 kb/s
Encoded date : UTC 2016-09-09 03:43:27
Tagged date : UTC 2016-09-09 03:43:27
Writing application : Lavf56.36.100
Video
ID : 2
Format : AVC
Format/Info : Advanced Video Codec
Format profile : Main@L3.1
Format settings, CABAC : Yes
Format settings, ReFrames : 1 frame
Format settings, GOP : M=1, N=25
Codec ID : avc1
Codec ID/Info : Advanced Video Coding
Duration : 2 h 38 min
Bit rate : 1 032 kb/s
Width : 1 280 pixels
Height : 720 pixels
Display aspect ratio : 16:9
Frame rate mode : Constant
Frame rate : 30.000 FPS
Standard : Component
Color space : YUV
Chroma subsampling : 4:2:0
Bit depth : 8 bits
Scan type : Progressive
Bits/(Pixel*Frame) : 0.037
Stream size : 1.15 GiB (81%)
Encoded date : UTC 2016-09-09 03:43:27
Tagged date : UTC 2016-09-09 03:43:27
Color range : Limited
Audio
ID : 1
Format : AAC
Format/Info : Advanced Audio Codec
Format profile : LC
Codec ID : 40
Duration : 2 h 38 min
Bit rate mode : Constant
Bit rate : 235 kb/s
Channel(s) : 2 channels
Channel positions : Front: L R
Sampling rate : 48.0 kHz
Frame rate : 46.875 FPS (1024 spf)
Compression mode : Lossy
Stream size : 267 MiB (18%)
Default : Yes
Alternate group : 1
Encoded date : UTC 2016-09-09 03:43:27
Tagged date : UTC 2016-09-09 03:43:27
Скриншоты:
Скачать .torrent

Для того, чтобы скачать торрент-файл

Дмитрий Ковпак - Бизнес с Китаем за 2 месяца коучинг 16.0 [Версия PLATINUM+VIP] (2016)

с нашего сайта, Вам необходимо Войти на сайт под своим логином! Если у Вас ещё нет логина, тогда Вам нужно сначала Зарегистрироваться!

Как скачивать? · Что такое торрент? · Рейтинг и ограничения

Показать сообщения:    
Ответить на тему

Дмитрий Ковпак - Бизнес с Китаем за 2 месяца коучинг 16.0 [Версия PLATINUM+VIP] (2016) скачать торрент (torrent), видеоуроки, тренинги, обучающее видео и видеокурсы

Текущее время: Сегодня 18:00

Часовой пояс: GMT + 4



Вы не можете начинать темы
Вы не можете отвечать на сообщения
Вы не можете редактировать свои сообщения
Вы не можете удалять свои сообщения
Вы не можете голосовать в опросах
Вы не можете прикреплять файлы к сообщениям
Вы не можете скачивать файлы