Сергей Филиппов - Три взрывных Мастер-класса (2015-2016)

Ответить на тему
 
Автор Сообщение

Yulya ®

Сергей Филиппов | Три взрывных Мастер-класса (2015-2016) HDTVRip - Автор (режиссер): Сергей Филиппов
Производство: Vertex
Жанр: Бизнес
Оф. сайт http://www.vertexschool.ru/
Описание:
Мастер-класс «Как увеличить продажи несмотря на кризис» состоялся в сентябре 2015 в Санкт-Петербурге и собрал вместе более 500 руководителей коммерческих отделов и менеджеров по продажам. На нем рассмотрели такие темы, как изменение ценностей клиентов в кризис, оптимизация продуктовой линейки, ценовая конкуренция (как не скатиться в скидки), персонал (сокращать или нанимать), мотивация продавцов. Актуально для всех, кто ищет способы увеличения продаж и оборотов компании в нестабильные времена.
Мастер-класс «Ахтунг-менеджмент» состоялся в декабре 2015 в Санкт-Петербурге и собрал вместе около 200 директоров. руководителей коммерческих отделов и менеджеров по продажам. На нем рассмотрели такие темы, как 1.Какая должна быть стратегия в эпоху перемен, 2.Как встряхнуть коллектив, 3. Неопределенность рынка и что с ней делать, 4. Стабилизация коллектива, 5. Повышение эффективности, 6. Антистресс руководителя.
Мастер-класс «Как превратить сотрудников в фанатов» - отличный выбор для управленцев.
Продолжительность: 05:24:21
Качество видео: PcRec
Видео: AVC/H.264, 1280x720, ~1286 Kbps
Аудио: AAC, 2 ch, 126 Kbps

Mediainfo:

eneral
Complete name : Q:\Три взрывных мк Филиппова\Мастер-класс_Ахтунг-менеджмент.mp4
Format : MPEG-4
Format profile : Base Media / Version 2
Codec ID : mp42
File size : 1.13 GiB
Duration : 1h 54mn
Overall bit rate mode : Variable
Overall bit rate : 1 415 Kbps
Encoded date : UTC 2016-08-17 18:55:20
Tagged date : UTC 2016-08-17 18:55:20
gsst : 0
gstd : 6854066
Video
ID : 1
Format : AVC
Format/Info : Advanced Video Codec
Format profile : Main@L3.1
Format settings, CABAC : Yes
Format settings, ReFrames : 3 frames
Codec ID : avc1
Codec ID/Info : Advanced Video Coding
Duration : 1h 54mn
Bit rate : 1 286 Kbps
Width : 1 280 pixels
Height : 720 pixels
Display aspect ratio : 16:9
Frame rate mode : Constant
Frame rate : 25.000 fps
Color space : YUV
Chroma subsampling : 4:2:0
Bit depth : 8 bits
Scan type : Progressive
Bits/(Pixel*Frame) : 0.056
Stream size : 1.03 GiB (91%)
Title : ISO Media file produced by Google Inc.
Encoded date : UTC 2016-08-17 18:55:20
Tagged date : UTC 2016-08-17 18:55:20
Audio
ID : 2
Format : AAC
Format/Info : Advanced Audio Codec
Format profile : LC
Codec ID : 40
Duration : 1h 54mn
Bit rate mode : Variable
Bit rate : 126 Kbps
Channel(s) : 2 channels
Channel positions : Front: L R
Sampling rate : 44.1 KHz
Compression mode : Lossy
Stream size : 103 MiB (9%)
Title : ISO Media file produced by Google Inc.
Encoded date : UTC 2016-08-17 18:55:20
Tagged date : UTC 2016-08-17 18:55:20
General
Complete name : Q:\Три взрывных мк Филиппова\Мастер-класс_Как превратить сотрудников в фанатов.mp4
Format : MPEG-4
Format profile : Base Media / Version 2
Codec ID : mp42
File size : 1.04 GiB
Duration : 1h 45mn
Overall bit rate mode : Variable
Overall bit rate : 1 414 Kbps
Encoded date : UTC 2016-08-12 00:32:25
Tagged date : UTC 2016-08-12 00:32:25
gsst : 0
gstd : 6321446
Video
ID : 1
Format : AVC
Format/Info : Advanced Video Codec
Format profile : Main@L3.1
Format settings, CABAC : Yes
Format settings, ReFrames : 3 frames
Codec ID : avc1
Codec ID/Info : Advanced Video Coding
Duration : 1h 45mn
Bit rate : 1 285 Kbps
Width : 1 280 pixels
Height : 720 pixels
Display aspect ratio : 16:9
Frame rate mode : Constant
Frame rate : 25.000 fps
Color space : YUV
Chroma subsampling : 4:2:0
Bit depth : 8 bits
Scan type : Progressive
Bits/(Pixel*Frame) : 0.056
Stream size : 968 MiB (91%)
Title : ISO Media file produced by Google Inc.
Encoded date : UTC 2016-08-12 00:32:25
Tagged date : UTC 2016-08-12 00:32:25
Audio
ID : 2
Format : AAC
Format/Info : Advanced Audio Codec
Format profile : LC
Codec ID : 40
Duration : 1h 45mn
Bit rate mode : Variable
Bit rate : 126 Kbps
Channel(s) : 2 channels
Channel positions : Front: L R
Sampling rate : 44.1 KHz
Compression mode : Lossy
Stream size : 94.6 MiB (9%)
Title : ISO Media file produced by Google Inc.
Encoded date : UTC 2016-08-12 00:32:25
Tagged date : UTC 2016-08-12 00:32:25
General
Complete name : Q:\Три взрывных мк Филиппова\Мастер-класс_Как увеличить продажи.mp4
Format : MPEG-4
Format profile : Base Media / Version 2
Codec ID : mp42
File size : 796 MiB
Duration : 1h 44mn
Overall bit rate mode : Variable
Overall bit rate : 1 062 Kbps
Encoded date : UTC 2016-10-11 10:55:26
Tagged date : UTC 2016-10-11 10:55:26
gsst : 0
gstd : 6286547
Video
ID : 1
Format : AVC
Format/Info : Advanced Video Codec
Format profile : Main@L3.1
Format settings, CABAC : Yes
Format settings, ReFrames : 3 frames
Codec ID : avc1
Codec ID/Info : Advanced Video Coding
Duration : 1h 44mn
Bit rate : 934 Kbps
Width : 1 280 pixels
Height : 720 pixels
Display aspect ratio : 16:9
Frame rate mode : Constant
Frame rate : 25.000 fps
Color space : YUV
Chroma subsampling : 4:2:0
Bit depth : 8 bits
Scan type : Progressive
Bits/(Pixel*Frame) : 0.041
Stream size : 700 MiB (88%)
Title : ISO Media file produced by Google Inc.
Encoded date : UTC 2016-10-11 10:55:26
Tagged date : UTC 2016-10-11 10:55:26
Color range : Limited
Color primaries : BT.709
Transfer characteristics : BT.709
Matrix coefficients : BT.709
Audio
ID : 2
Format : AAC
Format/Info : Advanced Audio Codec
Format profile : LC
Codec ID : 40
Duration : 1h 44mn
Bit rate mode : Variable
Bit rate : 126 Kbps
Channel(s) : 2 channels
Channel positions : Front: L R
Sampling rate : 44.1 KHz
Compression mode : Lossy
Stream size : 94.1 MiB (12%)
Title : ISO Media file produced by Google Inc.
Encoded date : UTC 2016-10-11 10:55:26
Tagged date : UTC 2016-10-11 10:55:26
General
Complete name : Q:\Три взрывных мк Филиппова\Три взрывных мк Филиппова.torrent
File size : 15.4 KiB
Скриншоты:
Скачать .torrent

Для того, чтобы скачать торрент-файл

Сергей Филиппов - Три взрывных Мастер-класса (2015-2016)

с нашего сайта, Вам необходимо Войти на сайт под своим логином! Если у Вас ещё нет логина, тогда Вам нужно сначала Зарегистрироваться!

Как скачивать? · Что такое торрент? · Рейтинг и ограничения

Показать сообщения:    
Ответить на тему

Сергей Филиппов - Три взрывных Мастер-класса (2015-2016) скачать торрент (torrent), видеоуроки, тренинги, обучающее видео и видеокурсы

Текущее время: Сегодня 18:34

Часовой пояс: GMT + 4



Вы не можете начинать темы
Вы не можете отвечать на сообщения
Вы не можете редактировать свои сообщения
Вы не можете удалять свои сообщения
Вы не можете голосовать в опросах
Вы не можете прикреплять файлы к сообщениям
Вы не можете скачивать файлы