Алор Брокер - Спецназ ЛЧИ (2015)

Ответить на тему
 
Автор Сообщение

Yulya ®

Алор Брокер | Спецназ ЛЧИ (2015) PCRec - Автор (режиссер): Алор Брокер
Жанр: Трейдинг,фьючерсы
Описание:
Мы докажем Вам, что зарабатывать на фондовой бирже может каждый, нужны только желание и прибыльная торговая стратегия! Вы получите сразу несколько торговых стратегий, которые реально работают. Их эффективность была продемонстрирована в ходе конкурса «Лучший частный инвестор 2013». Каждый из четырех преподавателей расскажет о своей стратегии. Пройдя обучение, Вы сможете самостоятельно прогнозировать движения цен, ориентироваться в текущей рыночной ситуации, понимать какие активы будут расти в цене, а от каких стоить держаться подальше.
Учебная программа предназначена для продвинутых — поможет добавить в торговлю новые методы, узнать глубже механизмы рыночных движений, разработать свою торговую стратегию.
Программа обучения:
-Стратегия Олега Рыбальченко
-Стратегия Алексея Антонова
-Стратегия Кирилла Яковенко
-Стратегия Анатолия Демонова
Продолжительность: 29:40:20
Качество видео: PCRec
Видео: AVC/H.264, 1920x1080, ~41kbps
Аудио: AAC, 2 ch, 183 kb/s

Mediainfo:

Format                      : MPEG-4
Format profile : Base Media
Codec ID : isom (isom/iso2/avc1/mp41)
File size : 467 MiB
Duration : 5 h 56 min
Overall bit rate : 183 kb/s
Writing application : Lavf56.25.101
Video
ID : 1
Format : AVC
Format/Info : Advanced Video Codec
Format profile : Main@L4
Format settings, CABAC : Yes
Format settings, ReFrames : 4 frames
Codec ID : avc1
Codec ID/Info : Advanced Video Coding
Duration : 5 h 56 min
Source duration : 5 h 56 min
Bit rate : 41.8 kb/s
Width : 1 920 pixels
Height : 1 080 pixels
Display aspect ratio : 16:9
Frame rate mode : Variable
Frame rate : 10.772 FPS
Minimum frame rate : 0.330 FPS
Maximum frame rate : 30.000 FPS
Color space : YUV
Chroma subsampling : 4:2:0
Bit depth : 8 bits
Scan type : Progressive
Bits/(Pixel*Frame) : 0.002
Stream size : 106 MiB (23%)
Source stream size : 106 MiB (23%)
Writing library : x264 core 142 r2479 dd79a61
Encoding settings : cabac=1 / ref=1 / deblock=1:0:0 / analyse=0x1:0x111 / me=hex / subme=2 / psy=1 / psy_rd=1.00:0.00 / mixed_ref=0 / me_range=16 / chroma_me=1 / trellis=0 / 8x8dct=0 / cqm=0 / deadzone=21,11 / fast_pskip=1 / chroma_qp_offset=0 / threads=12 / lookahead_threads=4 / sliced_threads=0 / nr=0 / decimate=1 / interlaced=0 / bluray_compat=0 / constrained_intra=0 / bframes=3 / b_pyramid=2 / b_adapt=1 / b_bias=0 / direct=1 / weightb=1 / open_gop=0 / weightp=1 / keyint=300 / keyint_min=30 / scenecut=40 / intra_refresh=0 / rc_lookahead=10 / rc=crf / mbtree=1 / crf=27.0 / qcomp=0.60 / qpmin=0 / qpmax=69 / qpstep=4 / vbv_maxrate=20000 / vbv_bufsize=25000 / crf_max=0.0 / nal_hrd=none / filler=0 / ip_ratio=1.40 / aq=1:1.00
Color range : Limited
Color primaries : BT.709
Transfer characteristics : BT.709
Matrix coefficients : BT.709
Audio
ID : 2
Format : AAC
Format/Info : Advanced Audio Codec
Format profile : LC
Codec ID : 40
Duration : 5 h 56 min
Bit rate mode : Constant
Bit rate : 132 kb/s
Channel(s) : 2 channels
Channel positions : Front: L R
Sampling rate : 48.0 kHz
Frame rate : 46.875 FPS (1024 spf)
Compression mode : Lossy
Stream size : 343 MiB (73%)
Language : unk
Default : Yes
Alternate group : 1
Скриншоты:
Скачать .torrent

Для того, чтобы скачать торрент-файл

Алор Брокер - Спецназ ЛЧИ (2015)

с нашего сайта, Вам необходимо Войти на сайт под своим логином! Если у Вас ещё нет логина, тогда Вам нужно сначала Зарегистрироваться!

Как скачивать? · Что такое торрент? · Рейтинг и ограничения

Показать сообщения:    
Ответить на тему

Алор Брокер - Спецназ ЛЧИ (2015) скачать торрент (torrent), видеоуроки, тренинги, обучающее видео и видеокурсы

Текущее время: Сегодня 03:03

Часовой пояс: GMT + 4



Вы не можете начинать темы
Вы не можете отвечать на сообщения
Вы не можете редактировать свои сообщения
Вы не можете удалять свои сообщения
Вы не можете голосовать в опросах
Вы не можете прикреплять файлы к сообщениям
Вы не можете скачивать файлы