Игорь Чечет - Комплект курсов по созданию торговых роботов Wealth-Lab: Старт (2013)

Ответить на тему
 
Автор Сообщение

Yulya ®

Игорь Чечет | Комплект курсов по созданию торговых роботов Wealth-Lab: Старт (2013) PCRec - Автор (режиссер): Игорь Чечет
Жанр: Алготрейдинг
Описание:
Мы, Игорь Чечет и Дмитрий Власов, частные трейдеры, инвесторы с многолетним опытом, предлагаем вам окунуться в мир алгоритмического трейдинга. Все правила вашей торговли не будут зависеть от субъективизма, а значит, вероятность ваших потерь на бирже значительно снизится, а заработка - повысится.
Алгоритмическая торговля (или алготрейдинг) - это торговля на финансовых рынках с помощью объективных систем, не зависящих от опыта и психологического состояния трейдера. Вам интересна торговля без сомнений и эмоций? Если ваш ответ положительный, то вам несомненно стоит уделить время на изученные материалов, предоставленных от нас!
Курс: От идеи до правил торговой системы за 3 дня.
Курс: WEalth-Lab: с нуля до первой торговой системы за 5 дней
Мастер-класс: Продвинутый анализ МТС в Wealth-Lab
Курс: Тестирование и оптимизация МТС за 5 дней
Мастер-класс: Алгоритм подбора финансового инструмента для торговой системы
Мастер-класс: Ротация торговых систем. Практика
Курс: Управление капиталом и формирование портфеля МТС за 7 дней
Курс: Wealth-Lab. Автоторговля. 7 дней.
Продолжительность: 95:12:34
Качество видео: PCRec
Видео: Xvid, 1920x1080, ~200kbps
Аудио: MP3, 1 ch, 191kbps

Mediainfo:

Формат                                   : AVI
Формат/Информация : Audio Video Interleave
Размер файла : 273 Мбайт
Продолжительность : 2 ч. 21 м.
Общий поток : 270 Кбит/сек
Программа кодирования : Lavf54.59.107
Видео
Идентификатор : 0
Формат : MPEG-4 Visual
Профиль формата : Simple@L1
Параметр BVOP формата : Нет
Параметр QPel формата : Нет
Параметр GMC формата : Без точки перехода
Параметр матрицы формата : Default (H.263)
Идентификатор кодека : XVID
Идентификатор кодека/Подсказка : XviD
Продолжительность : 2 ч. 21 м.
Битрейт : 200 Кбит/сек
Ширина : 1680 пикселей
Высота : 1052 пикселя
Соотношение сторон : 16:10
Частота кадров : 10,000 кадров/сек
Цветовое пространство : YUV
Субдискретизация насыщенности : 4:2:0
Битовая глубина : 8 бит
Тип развёртки : Прогрессивная
Метод сжатия : С потерями
Бит/(Пиксели*Кадры) : 0.011
Размер потока : 202 Мбайт (74%)
Библиотека кодирования : Lavc54.86.100
Аудио
Идентификатор : 1
Формат : MPEG Audio
Версия формата : Version 2.5
Профиль формата : Layer 3
Идентификатор кодека : 55
Идентификатор кодека/Подсказка : MP3
Продолжительность : 2 ч. 21 м.
Вид битрейта : Постоянный
Битрейт : 64,0 Кбит/сек
Каналы : 1 канал
Частота : 12,0 КГц
Метод сжатия : С потерями
Размер потока : 64,9 Мбайт (24%)
Выравнивание : Соединение по промежуткам
Продолжительность промежутка : 48 мс. (0,48 видеокадр)
Время предзагрузки промежутка : 48 мс.
Библиотека кодирования : LAME3.992 В
Скриншоты:
Скачать .torrent

Для того, чтобы скачать торрент-файл

Игорь Чечет - Комплект курсов по созданию торговых роботов Wealth-Lab: Старт (2013)

с нашего сайта, Вам необходимо Войти на сайт под своим логином! Если у Вас ещё нет логина, тогда Вам нужно сначала Зарегистрироваться!

Как скачивать? · Что такое торрент? · Рейтинг и ограничения

Показать сообщения:    
Ответить на тему

Игорь Чечет - Комплект курсов по созданию торговых роботов Wealth-Lab: Старт (2013) скачать торрент (torrent), видеоуроки, тренинги, обучающее видео и видеокурсы

Текущее время: Сегодня 08:53

Часовой пояс: GMT + 4



Вы не можете начинать темы
Вы не можете отвечать на сообщения
Вы не можете редактировать свои сообщения
Вы не можете удалять свои сообщения
Вы не можете голосовать в опросах
Вы не можете прикреплять файлы к сообщениям
Вы не можете скачивать файлы