Специалист - Курс М6235 (М2792) Внедрение и поддержка сервисов интеграции Microsoft SQL Server 2008 R2/2005 (2011)

Ответить на тему
 
Автор Сообщение

Yulya ®

-Специалист - Курс М6235 (М2792) Внедрение и поддержка сервисов интеграции Microsoft SQL Server 2008 R2/2005 (2011)- Автор (режиссер): Специалист
Преподаватель: Федор Анатольевич Самородов
Жанр: Обучающие видео-уроки
Продолжительность: 06:56:41
Качество видео: PCRec
Видеокодек: G2M4
Битрейт видео: ~176 - 189 kb/s
Размер кадра: 800x600, 1024x768
Аудиокодек: WMA
Битрейт аудио: 48 kb/s, 1 Ch
Описание:
Цель курса:
Освоение функций и возможностей Microsoft SQL Server 2008 R2, предназначенных для реализации и поддержки служб интеграции.
Курс предназначен для всех администраторов баз данных, разработчиков систем бизнес-анализа, а также для разработчиков и администраторов систем, связанных с импортом/экспортом/обработкой больших объёмов данных.
По окончании курса Вы будете уметь:
Описывать службы интеграции SQL Server 2005 и инструментарий для их использования
Создавать пакеты заданий для служб интеграции
Определять управляющие потоки в пакетах заданий
Определять потоки данных в пакетах заданий
Реализовывать журналирование в пакетах заданий
Отлаживать пакеты заданий и обрабатывать ошибки
Работать с контрольными точками и транзакциями в пакетах заданий
Развёртывать пакеты заданий
Управлять пакетами заданий и настройками безопасности

Программа курса:

Модуль 1. Введение в службы интеграции SQL Server 2008 R2
Обзор служб интеграции, их роль в решении ETL-задач
Мастер импорта-экспорта данных
Использование инструментов служб интеграции для построения ETL-решений
Запуск пакетов служб интеграции
Модуль 2. Разработка решения для интеграции
Создание решения для интеграции
Создание собственных пакетов служб интеграции
Использование переменных
Компиляция и запуск решения
Модуль 3. Реализация управляющего потока
Элементы для управления потоком исполнения
Группировка, активация/деактивация задач
Настройка очерёдности исполнения (параллельное, последовательное исполнение)
Контейнеры для управления потоком (последовательность, циклы)
Модуль 4. Реализация потока данных
Источники и назначения для потока данных
Трансформации в потоке данных
Построение сложных алгоритмов трансформации
Пути потока данных
Использование механизмов просмотра данных для отладки
Обработка потоков ошибочных данных
Модуль 5. Реализация журналирования
Стандартные способы журналирования
Настройка стандартного журналирования задач и событий
Настройка собственных вариантов журналирования
Модуль 6. Отладка и обработка ошибок
Отладка пакета
Инструменты для отладки (точки останова, просмотр текущих значений)
Перехват и обработка ошибок
Стратегия обработки аварийных ошибок и сбоев
Модуль 7. Реализация контрольных точек и транзакций
Стратегия создания устойчивых к сбоям пакетов
Реализация контрольных точек
Режимы перезапуска пакета после сбоя
Реализация транзакций
Распределённые и локальные транзакции
Модуль 8. Развёртывание пакетов
Пакетные конфигурации
Настройка пакетной конфигурации и подготовка к развёртыванию
Развёртывание пакетов
Работа с конфигурируемым пакетом
Модуль 9. Управление пакетами и настройка безопасности
Управление пакетами
Импорт и экспорт пакетов
Мониторинг выполнения пакета
Автоматизация пакетов, запуск по расписанию
Настройка безопасности
Режимы доступа к пакету

Дополнительная информация:

Кодек G2M4 для воспроизведения данного видео прилагается в отдельной папке.

MediaInfo:

Код:
Общее
Полное имя                               : C:\[Специалист] М6235 (М2792) Внедрение и поддержка сервисов интеграции Microsoft SQL Server 2008 R2, 2005 - 2011\m6235_3.wma
Формат                                   : Windows Media
Размер файла                             : 261 Мбайт
Продолжительность                        : 2 ч. 32 м.
Режим общего битрейта                    : Переменный
Общий поток                              : 239 Кбит/сек
Максимальный общий битрейт               : 370 Кбит/сек
Дата кодирования                         : UTC 2011-12-07 07:19:27.150
Программа кодирования                    :  4.8 Build 723 / GoToMeeting
BitRateFrom the writer                   : 236670
Audio samples                            : 87899
Video samples                            : 49635
recording time                           : Ср, 07 дек 2011 17:37:59 Russian Standard Time
Видео
Идентификатор                            : 3
Формат                                   : G2M4
Идентификатор кодека                     : G2M4
Вид битрейта                             : Переменный
Битрейт                                  : 189 Кбит/сек
Ширина                                   : 800 пикселей
Высота                                   : 600 пикселей
Соотношение сторон                       : 4:3
Режим частоты кадров                     : Переменный
Номинальная частота кадров               : 29,970 кадров/сек
Битовая глубина                          : 8 бит
Язык                                     : Russian (RU)
Аудио
Идентификатор                            : 1
Формат                                   : WMA
Версия формата                           : Version 2
Идентификатор кодека                     : 161
Идентификатор кодека/Информация          : Windows Media Audio
Описание кодека                          : Windows Media Audio 9 -  48 kbps, 44 kHz, mono 1-pass CBR
Продолжительность                        : 2 ч. 32 м.
Вид битрейта                             : Постоянный
Битрейт                                  : 48,0 Кбит/сек
Каналы                                   : 1 канал
Частота                                  : 44,1 КГц
Битовая глубина                          : 16 бит
Размер потока                            : 52,5 Мбайт (20%)
Язык                                     : Russian
Код:
Общее
Полное имя                               : C:\[Специалист] М6235 (М2792) Внедрение и поддержка сервисов интеграции Microsoft SQL Server 2008 R2, 2005 - 2011\m6235_2.wma
Формат                                   : Windows Media
Размер файла                             : 144 Мбайт
Продолжительность                        : 1 ч. 54 м.
Режим общего битрейта                    : Переменный
Общий поток                              : 176 Кбит/сек
Максимальный общий битрейт               : 366 Кбит/сек
Дата кодирования                         : UTC 2011-12-06 07:17:40.515
Программа кодирования                    :  4.8 Build 723 / GoToMeeting
BitRateFrom the writer                   : 232954
Audio samples                            : 69289
Video samples                            : 36366
recording time                           : Вт, 06 дек 2011 17:57:39 Russian Standard Time
Видео
Идентификатор                            : 3
Формат                                   : G2M4
Идентификатор кодека                     : G2M4
Вид битрейта                             : Переменный
Битрейт                                  : 185 Кбит/сек
Ширина                                   : 1024 пикселя
Высота                                   : 768 пикселей
Соотношение сторон                       : 4:3
Режим частоты кадров                     : Переменный
Номинальная частота кадров               : 29,970 кадров/сек
Битовая глубина                          : 8 бит
Язык                                     : Russian (RU)
Аудио
Идентификатор                            : 1
Формат                                   : WMA
Версия формата                           : Version 2
Идентификатор кодека                     : 161
Идентификатор кодека/Информация          : Windows Media Audio
Описание кодека                          : Windows Media Audio 9 -  48 kbps, 44 kHz, mono 1-pass CBR
Продолжительность                        : 1 ч. 54 м.
Вид битрейта                             : Постоянный
Битрейт                                  : 48,0 Кбит/сек
Каналы                                   : 1 канал
Частота                                  : 44,1 КГц
Битовая глубина                          : 16 бит
Размер потока                            : 39,2 Мбайт (27%)
Язык                                     : Russian
Скриншоты:
Скачать .torrent

Для того, чтобы скачать торрент-файл

Специалист - Курс М6235 (М2792) Внедрение и поддержка сервисов интеграции Microsoft SQL Server 2008 R2/2005 (2011)

с нашего сайта, Вам необходимо Войти на сайт под своим логином! Если у Вас ещё нет логина, тогда Вам нужно сначала Зарегистрироваться!

Как скачивать? · Что такое торрент? · Рейтинг и ограничения

Показать сообщения:    
Ответить на тему

Специалист - Курс М6235 (М2792) Внедрение и поддержка сервисов интеграции Microsoft SQL Server 2008 R2/2005 (2011) скачать торрент (torrent), видеоуроки, тренинги, обучающее видео и видеокурсы

Текущее время: Сегодня 19:41

Часовой пояс: GMT + 4



Вы не можете начинать темы
Вы не можете отвечать на сообщения
Вы не можете редактировать свои сообщения
Вы не можете удалять свои сообщения
Вы не можете голосовать в опросах
Вы не можете прикреплять файлы к сообщениям
Вы не можете скачивать файлы