Лукьянов Александр - Скальпинг стратегии 2.0 + обновление от 2016 года (2012-2016)

Ответить на тему
 
Автор Сообщение

Yulya ®

Лукьянов Александр | Скальпинг стратегии 2.0 + обновление от 2016 года (2012-2016) PCRec - Автор (режиссер): Лукьянов Александр
Жанр: Трейдинг,Торговые системы
Описание:
Здесь находятся скальпинг стратегии, которые не будут лишними для Вас и позволяют сделать лишнюю 1000 долларов дохода! Присмотритесь, Вы имеете право освоить навыки успешного скальпинга, для себя! «Скальпинг стратегии 2.0» - это живые, современные стратегии для заработка на срочном рынке ФОРТС.
В курсе «Скальпинг стратегии 2.0» вы получите полноценный комплекс практических и теоретических уроков, которые помогут Вам освоить на практике прибыльные стратегии заработка с помощью скальпинга.

Описание Курса:

Что такое фьючерсы и как их торговать? Тикеры и маркировка.
Стратегия по опорным точкам в скальпинге. Выявляем сильные и слабые сигналы.
Учимся читать тиковые графики (стратегия) и выявляем моменты зарождение торговых импульсов.
Секреты чтения стакана и правильные методы работы по стакану в скальпинге при использовании разных комбинаций специальных заявок.
Психология скальпинга.
Уровни поддержики и сопротивления.
Систему поводырей и влияние международных рынков DAX, S&P500,NSEA на наш российский рынок.
Неэфективность движения цены и выявление ложных движений импульсов.
Силу влияния свечей на настроение толпы и движение цены.
Влияние макроэкономических данных и стратегии заработка на выходе макроэкономических данных и открытии американского рынка.
Стратегия поглощения опорных точек по наращиванию позиции при поддержании минимальных рисков.
Продолжительность: 03:51:06
Качество видео: PCRec
Видео: AVC/H.264, 1056x716, ~302kbps
Аудио: AAC, 2 ch, 53kbps

Mediainfo:

Формат                                   : MPEG-4
Профиль формата : Base Media / Version 2
Идентификатор кодека : mp42 (M4V /mp42/isom)
Размер файла : 14,5 Мбайт
Продолжительность : 5 м. 38 с.
Общий поток : 358 Кбит/сек
Дата кодирования : UTC 2012-01-10 20:27:14
Дата пометки : UTC 2012-01-10 20:27:14
Видео
Идентификатор : 1
Формат : AVC
Формат/Информация : Advanced Video Codec
Профиль формата : High@L3.1
Параметр CABAC формата : Да
Параметр ReFrames формата : 4 кадра
Параметр GOP формата : N=1
Идентификатор кодека : avc1
Идентификатор кодека/Информация : Advanced Video Coding
Продолжительность : 5 м. 38 с.
Продолжительность оригинала : 5 м. 38 с.
Битрейт : 302 Кбит/сек
Ширина : 1056 пикселей
Высота : 716 пикселей
Соотношение сторон : 3:2
Режим частоты кадров : Постоянный
Частота кадров : 15,000 кадров/сек
Цветовое пространство : YUV
Субдискретизация насыщенности : 4:2:0
Битовая глубина : 8 бит
Тип развёртки : Прогрессивная
Бит/(Пиксели*Кадры) : 0.027
Размер потока : 12,2 Мбайт (84%)
Размер потока оригинала : 12,2 Мбайт (84%)
Язык : English
Дата кодирования : UTC 2012-01-10 20:27:14
Дата пометки : UTC 2012-01-10 20:27:14
Цветовой диапазон : Limited
Основные цвета : BT.709
Характеристики трансфера : BT.709
Коэффициенты матрицы : BT.709
mdhd_Duration : 338947
Аудио
Идентификатор : 2
Формат : AAC
Формат/Информация : Advanced Audio Codec
Профиль формата : LC
Идентификатор кодека : 40
Продолжительность : 5 м. 38 с.
Продолжительность оригинала : 5 м. 38 с.
Вид битрейта : Постоянный
Битрейт : 53,6 Кбит/сек
Каналы : 2 канала
Расположение каналов : Front: L R
Частота : 44,1 КГц
Частота кадров : 43,066 кадра/сек (1024 spf)
Метод сжатия : С потерями
Размер потока : 2,16 Мбайт (15%)
Размер потока оригинала : 2,16 Мбайт (15%)
Язык : English
Дата кодирования : UTC 2012-01-10 20:27:14
Дата пометки : UTC 2012-01-10 20:27:14
mdhd_Duration : 338967
Скриншоты:
Скачать .torrent

Для того, чтобы скачать торрент-файл

Лукьянов Александр - Скальпинг стратегии 2.0 + обновление от 2016 года (2012-2016)

с нашего сайта, Вам необходимо Войти на сайт под своим логином! Если у Вас ещё нет логина, тогда Вам нужно сначала Зарегистрироваться!

Как скачивать? · Что такое торрент? · Рейтинг и ограничения

Показать сообщения:    
Ответить на тему

Лукьянов Александр - Скальпинг стратегии 2.0 + обновление от 2016 года (2012-2016) скачать торрент (torrent), видеоуроки, тренинги, обучающее видео и видеокурсы

Текущее время: Сегодня 16:11

Часовой пояс: GMT + 4



Вы не можете начинать темы
Вы не можете отвечать на сообщения
Вы не можете редактировать свои сообщения
Вы не можете удалять свои сообщения
Вы не можете голосовать в опросах
Вы не можете прикреплять файлы к сообщениям
Вы не можете скачивать файлы