Baswood Трейдинг - Профессиональный Дейтрейдинг и Свинг-трейдинг (2013)

Ответить на тему
 
Автор Сообщение

Yulya ®

Baswood Трейдинг | Профессиональный Дейтрейдинг и Свинг-трейдинг (2013) PCRec - Автор (режиссер): Baswood Трейдинг
Жанр: Трейдинг,Торговые системы
Описание:
Многие частные трейдеры уже понимают, что без отсутствия системы получать стабильную прибыль в краткосрочном и среднесрочном трейдинге почти невозможно.
Но многие частные трейдеры не хотят разбираться с достаточно сложными программами для тестирования и оптимизации. Тем более, что какой бы продвинутый метод тестирования и оптимизации вы не использовали, вероятность прибыльной торговли по вашей оттестированной системе повышается не на много. Нет гарантий, что оттестированная и прооптимизированная система будет так же хорошо работать на реальном счете.
Но уже существует простые безиндикаторные системы, которые уже несколько лет успешно работают на фьючерсах FORTS и на акциях ММВБ. Эти системы работают на разных тайм-фреймах и на разных инструментах. Эти системы основаны только на графических закономерностях и для определения точек входа и выхода не нужно использовать индикаторы или какие-то сложные пакеты технического анализа.

Программа курса

1.Вступление. Настройка торгового терминала, ведение журнала трейдинга, управление рисками.
2.Фьючерсы, биржа и интернет-трейдинг. Как работают различные финансовые рынки, кто их участники, какие существуют стили торговли.
3.Стили трейдинга. Скальпинг, дейтрейдинг, свингтрейдинг, среднесрок, парная торговля, арбитраж, фундаментальное инвестирование.
4.Мультисистемный трейдинг. Синергия дейтрейдинга и свингтрейдинга, риск-менеджмент, алготрейдинг.
5.Настройка системы. Настройка терминалов для интернет-трейдинга, использование роботов Wealth Lab.
6.Управление рисками. Соотношение прибылей и убытков, математическое ожидание, стоп-лоссы, волатильность рынка.
7.Психология трейдера. Контроль над эмоциями во время торговли, концентрация, расслабление, самодисциплина.
8.Безиндикаторная стратегия. Инструменты, таймфреймы, точки входа, ведение журнла сделок и расчетов.
9.Дейтрейдинг фьючерсами. Открытие, тейк-профит и стоп-лоссы для 4 систем.
10.Свингтрейдинг фьючерсами. Открытие, тейк-профит и стоп-лоссы для 4 систем.
11.Дейтрейдинг акциями. Открытие, тейк-профит и стоп-лоссы для 4 систем.
12.Свингтрейдинг акциями. Открытие, тейк-профит и стоп-лоссы для 4 систем.
Использование Wealth Lab. Загрузка, настройка, разработка своих систем.
14.Тестирование и оптимизация. Методы и периоды тестирования, оптимизационные переменные.
15.Замена ухудшающихся систем.
16.Распределение капитала. Выбор стратегий для одновременной торговли, оптимально распределение средств между ними.
Продолжительность: 28:26:16
Качество видео: PCRec
Видео: AVC/H.264, 1920x1080, ~383kbps
Аудио: AAC, 2 ch, 54kbps

Mediainfo:

Формат                                   : MPEG-4
Профиль формата : Base Media / Version 2
Идентификатор кодека : mp42 (M4V /mp42/isom)
Размер файла : 328 Мбайт
Продолжительность : 1 ч. 44 м.
Общий поток : 440 Кбит/сек
Дата кодирования : UTC 2013-05-10 17:17:24
Дата пометки : UTC 2013-05-10 17:17:24
Видео
Идентификатор : 1
Формат : AVC
Формат/Информация : Advanced Video Codec
Профиль формата : High@L4
Параметр CABAC формата : Да
Параметр ReFrames формата : 4 кадра
Параметр GOP формата : M=3, N=75
Идентификатор кодека : avc1
Идентификатор кодека/Информация : Advanced Video Coding
Продолжительность : 1 ч. 44 м.
Продолжительность оригинала : 1 ч. 44 м.
Битрейт : 384 Кбит/сек
Ширина : 1920 пикселей
Высота : 1080 пикселей
Соотношение сторон : 16:9
Режим частоты кадров : Постоянный
Частота кадров : 15,000 кадров/сек
Цветовое пространство : YUV
Субдискретизация насыщенности : 4:2:0
Битовая глубина : 8 бит
Тип развёртки : Прогрессивная
Бит/(Пиксели*Кадры) : 0.012
Размер потока : 286 Мбайт (87%)
Размер потока оригинала : 286 Мбайт (87%)
Язык : English
Дата кодирования : UTC 2013-05-10 17:17:24
Дата пометки : UTC 2013-05-10 17:17:24
Цветовой диапазон : Limited
Основные цвета : BT.709
Характеристики трансфера : BT.709
Коэффициенты матрицы : BT.709
mdhd_Duration : 6260951
Аудио
Идентификатор : 2
Формат : AAC
Формат/Информация : Advanced Audio Codec
Профиль формата : LC
Идентификатор кодека : 40
Продолжительность : 1 ч. 44 м.
Продолжительность оригинала : 1 ч. 44 м.
Вид битрейта : Постоянный
Битрейт : 54,8 Кбит/сек
Каналы : 2 канала
Расположение каналов : Front: L R
Частота : 22,05 КГц
Частота кадров : 21,533 кадра/сек (1024 spf)
Метод сжатия : С потерями
Размер потока : 40,9 Мбайт (12%)
Размер потока оригинала : 40,9 Мбайт (12%)
Язык : English
Дата кодирования : UTC 2013-05-10 17:17:24
Дата пометки : UTC 2013-05-10 17:17:24
mdhd_Duration : 6248553
Скриншоты:
Скачать .torrent

Для того, чтобы скачать торрент-файл

Baswood Трейдинг - Профессиональный Дейтрейдинг и Свинг-трейдинг (2013)

с нашего сайта, Вам необходимо Войти на сайт под своим логином! Если у Вас ещё нет логина, тогда Вам нужно сначала Зарегистрироваться!

Как скачивать? · Что такое торрент? · Рейтинг и ограничения

Показать сообщения:    
Ответить на тему

Baswood Трейдинг - Профессиональный Дейтрейдинг и Свинг-трейдинг (2013) скачать торрент (torrent), видеоуроки, тренинги, обучающее видео и видеокурсы

Текущее время: Сегодня 02:36

Часовой пояс: GMT + 4



Вы не можете начинать темы
Вы не можете отвечать на сообщения
Вы не можете редактировать свои сообщения
Вы не можете удалять свои сообщения
Вы не можете голосовать в опросах
Вы не можете прикреплять файлы к сообщениям
Вы не можете скачивать файлы