Морозова Лариса - Как зарабатывать на дивидендах Эмитентов Акций Московской Биржи (2016)

Ответить на тему
 
Автор Сообщение

Yulya ®

Морозова Лариса | Как зарабатывать на дивидендах Эмитентов Акций Московской Биржи (2016) PCRec - Автор (режиссер): Морозова Лариса
Жанр: Дивиденды,Трейдинг
Описание:
День №1.
Дивидендный механизм российского фондового рынка.
Варианты инвестиций в дивидендные акции или торговли дивидендными акциями исходя из личной предрасположенности инвестора, таблица выплат промежуточных дивидендов ряда эмитентов.
Дивидендный марафон (тайм фрейм торговли дивидендными акциями).
Понятие дивидендной доходности акций и дивидендной доходности вашего пакета акций.
Варианты увеличения дивидендной доходности условных портфелей на примерах из расчетных таблиц.
Диверсификация портфеля дивидендных акций. Техника безопасности при покупке дивидендных акций.
Причины выплат высоких дивидендов на российском фондовом рынке в прошлом, настоящем и в будущем. Примеры и аналогии.
Основные принципы работы дивидендного механизма российского фондового рынка
Примеры классификации дивидендных акций с учетом основных принципов дивидендного механизма рфр:
- необходимость пополнения гос. бюджета или региональных бюджетов субъектов РФ за счет дивидендов предприятий с гос. (региональным) участием;
-контроль за внешнеэкономической деятельностью компаний в случае, если мажоритарный акционер – компания-нерезидент;
- смена основного собственника предприятия;
- скупка контрольного пакета акций предприятия менеджментом.
Типы дивидендных акций:
-кумулятивные;
-привилегированные разных типов;
- обыкновенные.
День № 2 .
Обязательная информационная и нормативная база дивидендного инвестора.
Основные первоисточники информации по дивидендам и эмитентам
База для самостоятельного расчета потенциального дивиденда эмитента : чистая прибыль и дивидендная политика
Чистая прибыль эмитента по РСБУ. Отчет о финансовых результатах:
- формирование базы для начисления дивидендов эмитентов;
- источник НАЧИСЛЕНИЯ дивидендов;
- средства для выплаты дивидендов у эмитентов;
- источник ВЫПЛАТЫ дивидендов.
Дивидендные политики эмитентов. Сходство и различия их на примерах дивидендных политик ряда эмитентов .
Сроки покупки дивидендных акций:
- закрытия реестров для получения дивидендов;
- Режим Т+2 на ММВБ;
- Режим Т+2 при закрытии реестра в выходные дни;
Порядок выплат дивидендов для различных типов акций:
- кумулятивные;
- привилегированные разных типов;
- обыкновенные.
Сроки выплат дивидендов на российском фондовом рынке.
Налогообложение дивидендов . Примеры расчетов.
Продолжительность: 04:18:20
Качество видео: PCRec
Видео: AVC/H.264, 1644x784, ~132kbps
Аудио: AAC, 2 ch, 53kbps

Mediainfo:

Формат                                   : MPEG-4
Профиль формата : Base Media / Version 2
Идентификатор кодека : mp42 (M4V /mp42/isom)
Размер файла : 157 Мбайт
Продолжительность : 1 ч. 56 м.
Общий поток : 188 Кбит/сек
Дата кодирования : UTC 2016-02-11 19:30:09
Дата пометки : UTC 2016-02-11 19:30:09
Видео
Идентификатор : 1
Формат : AVC
Формат/Информация : Advanced Video Codec
Профиль формата : High@L3.2
Параметр CABAC формата : Да
Параметр ReFrames формата : 4 кадра
Параметр GOP формата : M=1, N=50
Идентификатор кодека : avc1
Идентификатор кодека/Информация : Advanced Video Coding
Продолжительность : 1 ч. 56 м.
Продолжительность оригинала : 1 ч. 56 м.
Битрейт : 133 Кбит/сек
Ширина : 1644 пикселя
Высота : 784 пикселя
Соотношение сторон : 2,097
Режим частоты кадров : Постоянный
Частота кадров : 10,000 кадров/сек
Цветовое пространство : YUV
Субдискретизация насыщенности : 4:2:0
Битовая глубина : 8 бит
Тип развёртки : Прогрессивная
Бит/(Пиксели*Кадры) : 0.010
Размер потока : 111 Мбайт (71%)
Размер потока оригинала : 111 Мбайт (71%)
Язык : English
Дата кодирования : UTC 2016-02-11 19:30:09
Дата пометки : UTC 2016-02-11 19:30:09
Цветовой диапазон : Limited
Основные цвета : BT.709
Характеристики трансфера : BT.709
Коэффициенты матрицы : BT.709
mdhd_Duration : 7008387
Аудио
Идентификатор : 2
Формат : AAC
Формат/Информация : Advanced Audio Codec
Профиль формата : LC
Идентификатор кодека : 40
Продолжительность : 1 ч. 56 м.
Продолжительность оригинала : 1 ч. 56 м.
Вид битрейта : Постоянный
Битрейт : 53,4 Кбит/сек
Каналы : 2 канала
Расположение каналов : Front: L R
Частота : 44,1 КГц
Частота кадров : 43,066 кадра/сек (1024 spf)
Метод сжатия : С потерями
Размер потока : 44,7 Мбайт (29%)
Размер потока оригинала : 44,7 Мбайт (29%)
Язык : English
Дата кодирования : UTC 2016-02-11 19:30:09
Дата пометки : UTC 2016-02-11 19:30:09
mdhd_Duration : 7027009
Скачать .torrent

Для того, чтобы скачать торрент-файл

Морозова Лариса - Как зарабатывать на дивидендах Эмитентов Акций Московской Биржи (2016)

с нашего сайта, Вам необходимо Войти на сайт под своим логином! Если у Вас ещё нет логина, тогда Вам нужно сначала Зарегистрироваться!

Как скачивать? · Что такое торрент? · Рейтинг и ограничения

Показать сообщения:    
Ответить на тему

Морозова Лариса - Как зарабатывать на дивидендах Эмитентов Акций Московской Биржи (2016) скачать торрент (torrent), видеоуроки, тренинги, обучающее видео и видеокурсы

Текущее время: Сегодня 11:54

Часовой пояс: GMT + 4



Вы не можете начинать темы
Вы не можете отвечать на сообщения
Вы не можете редактировать свои сообщения
Вы не можете удалять свои сообщения
Вы не можете голосовать в опросах
Вы не можете прикреплять файлы к сообщениям
Вы не можете скачивать файлы