Стивен Кови - Выступление для руководителей Сбербанка России (2009)

Ответить на тему
 
Автор Сообщение

Yulya ®

Стивен Кови | Выступление для руководителей Сбербанка России (2009) CamRip - Автор (режиссер): Стивен Кови
Производство: Сбербанк России
Жанр: Бизнес
Описание:
Запись выступления Стивена Кови на телеконференции для руководителей Сбербанка России.
Стивен Кови - обладатель степени магистра экономики управления и докторской степени Университета Бригэма Янга, пользуется широким признанием во всем мире как лектор и автор теории руководства, личной эффективности, семейных и межличностных отношений.
Является автором нескольких известных книг, одна из которых - «Семь навыков высокоэффективных людей» - более семи лет возглавляла список бестселлеров и по результатам опроса читателей «Журнала для руководителей» была названа «самой влиятельной книгой по бизнесу XX века».
За тридцать с лишним лет он научил миллионы людей трансформирующей силе принципов, или естественных законов, которые правят эффективностью людей и организаций.
Продолжительность: 02:31:23
Качество видео: CamRip
Видео: MPEG-4 Visual, 352х240, ~283 Kbps
Аудио: AAC, 2 ch, 55.1 Kbps, VBR

Mediainfo:

Код:
General
Complete name                            : C:\Torrents\Стивен Кови - Сбербанк РФ - 09.10.2009.mp4
Format                                   : MPEG-4
Format profile                           : Base Media / Version 2
Codec ID                                 : mp42
File size                                : 369 MiB
Duration                                 : 2h 31mn
Overall bit rate mode                    : Variable
Overall bit rate                         : 340 Kbps
Encoded date                             : UTC 2009-10-09 10:08:18
Tagged date                              : UTC 2009-10-09 10:47:06
Writing application                      : FAAC 1.25
Video
ID                                       : 2
Format                                   : MPEG-4 Visual
Format profile                           : Simple@L3
Format settings, BVOP                    : No
Format settings, QPel                    : No
Format settings, GMC                     : No warppoints
Format settings, Matrix                  : Default (H.263)
Codec ID                                 : 20
Duration                                 : 2h 31mn
Bit rate                                 : 283 Kbps
Width                                    : 352 pixels
Height                                   : 240 pixels
Display aspect ratio                     : 3:2
Frame rate mode                          : Constant
Frame rate                               : 25.000 fps
Standard                                 : NTSC
Color space                              : YUV
Chroma subsampling                       : 4:2:0
Bit depth                                : 8 bits
Scan type                                : Progressive
Compression mode                         : Lossy
Bits/(Pixel*Frame)                       : 0.134
Stream size                              : 307 MiB (83%)
Writing library                          : XviD 1.1.2 (UTC 2006-11-01)
Language                                 : English
Encoded date                             : UTC 2009-10-09 10:08:18
Tagged date                              : UTC 2009-10-09 10:47:06
Audio
ID                                       : 1
Format                                   : AAC
Format/Info                              : Advanced Audio Codec
Format profile                           : LC
Codec ID                                 : 40
Duration                                 : 2h 31mn
Bit rate mode                            : Variable
Bit rate                                 : 55.1 Kbps
Channel(s)                               : 2 channels
Channel(s)_Original                      : 1 channel
Channel positions                        : Front: C
Sampling rate                            : 32.0 KHz
Compression mode                         : Lossy
Stream size                              : 59.7 MiB (16%)
Language                                 : English
Encoded date                             : UTC 2009-10-09 10:08:18
Tagged date                              : UTC 2009-10-09 10:47:06
Скачать .torrent

Для того, чтобы скачать торрент-файл

Стивен Кови - Выступление для руководителей Сбербанка России (2009)

с нашего сайта, Вам необходимо Войти на сайт под своим логином! Если у Вас ещё нет логина, тогда Вам нужно сначала Зарегистрироваться!

Как скачивать? · Что такое торрент? · Рейтинг и ограничения

Показать сообщения:    
Ответить на тему

Стивен Кови - Выступление для руководителей Сбербанка России (2009) скачать торрент (torrent), видеоуроки, тренинги, обучающее видео и видеокурсы

Текущее время: Сегодня 17:01

Часовой пояс: GMT + 4



Вы не можете начинать темы
Вы не можете отвечать на сообщения
Вы не можете редактировать свои сообщения
Вы не можете удалять свои сообщения
Вы не можете голосовать в опросах
Вы не можете прикреплять файлы к сообщениям
Вы не можете скачивать файлы