Светлана Шечун - Авторский курс FORTS (2014)

Ответить на тему
 
Автор Сообщение

Yulya ®

Светлана Шечун | Авторский курс FORTS (2014) PCRec - Автор (режиссер): Светлана Шечун
Жанр: Трейдинг,срочный рынок, фортс
Описание:
Моя торговая стратегия строится на основе визуального анализа. Она включает в себя последовательность моделей, адаптированных к конкретному циклу рынка.
Все модели могут применяться как отдельные торговые системы. Это даст Вам возможность выбрать собственный психологически комфортный стиль торговли.
Предлагаемый подход применим к любому таймфрейму и позволяет зарабатывать 1000 – 5000 пт в день.
Содержание:
-5 моделей с конкретным планом действий.
-Cтратегия скальпинга - быстрые сделки по 200-300 пт.
-Вы не найдете использование индикаторов и классическое применение технического анализа, торговли по новостям и корреляции, высоко-частотного трейдинга, анализа стакана и объемов.
За две недели я обучу Вас своим методам торговли. После этого мы будем совместно торговать с ежедневным разбором идей и ошибок.
Продолжительность: 27:57:14
Качество видео: PCRec
Видео: MPEG4 Video (H264), 1920x1080, ~246kbps
Аудио: AAC, 2 ch, 50kbps

Mediainfo:

Video: MPEG4 Video (H264) 1920x1080 15fps 246kbps [V: Video Media Handler [eng] (h264 high L4.0, yuv420p, 1920x1080, 246 kb/s)]
Audio: AAC 44100Hz stereo 50kbps [A: Sound Media Handler [eng] (aac lc, 44100 Hz, stereo, 50 kb/s)]
Format : MPEG-4
Format profile : Base Media / Version 2
Codec ID : mp42 (M4V /mp42/isom)
File size : 309 MiB
Duration : 2 h 24 min
Overall bit rate : 299 kb/s
Encoded date : UTC 2014-07-30 22:16:59
Tagged date : UTC 2014-07-30 22:16:59
Video
ID : 1
Format : AVC
Format/Info : Advanced Video Codec
Format profile : High@L4
Format settings, CABAC : Yes
Format settings, ReFrames : 4 frames
Format settings, GOP : M=1, N=75
Codec ID : avc1
Codec ID/Info : Advanced Video Coding
Duration : 2 h 24 min
Source duration : 2 h 24 min
Bit rate : 247 kb/s
Width : 1 920 pixels
Height : 1 080 pixels
Display aspect ratio : 16:9
Frame rate mode : Constant
Frame rate : 15.000 FPS
Color space : YUV
Chroma subsampling : 4:2:0
Bit depth : 8 bits
Scan type : Progressive
Bits/(Pixel*Frame) : 0.008
Stream size : 255 MiB (82%)
Source stream size : 255 MiB (82%)
Language : English
Encoded date : UTC 2014-07-30 22:16:59
Tagged date : UTC 2014-07-30 22:16:59
Color range : Limited
Color primaries : BT.709
Transfer characteristics : BT.709
Matrix coefficients : BT.709
mdhd_Duration : 8675101
Audio
ID : 2
Format : AAC
Format/Info : Advanced Audio Codec
Format profile : LC
Codec ID : 40
Duration : 2 h 24 min
Source duration : 2 h 24 min
Bit rate mode : Constant
Bit rate : 50.4 kb/s
Channel(s) : 2 channels
Channel positions : Front: L R
Sampling rate : 44.1 kHz
Frame rate : 43.066 FPS (1024 spf)
Compression mode : Lossy
Stream size : 52.3 MiB (17%)
Source stream size : 52.3 MiB (17%)
Language : English
Encoded date : UTC 2014-07-30 22:16:59
Tagged date : UTC 2014-07-30 22:16:59
mdhd_Duration : 8702579
Скриншоты:
Скачать .torrent

Для того, чтобы скачать торрент-файл

Светлана Шечун - Авторский курс FORTS (2014)

с нашего сайта, Вам необходимо Войти на сайт под своим логином! Если у Вас ещё нет логина, тогда Вам нужно сначала Зарегистрироваться!

Как скачивать? · Что такое торрент? · Рейтинг и ограничения

Показать сообщения:    
Ответить на тему

Светлана Шечун - Авторский курс FORTS (2014) скачать торрент (torrent), видеоуроки, тренинги, обучающее видео и видеокурсы

Текущее время: Сегодня 02:38

Часовой пояс: GMT + 4



Вы не можете начинать темы
Вы не можете отвечать на сообщения
Вы не можете редактировать свои сообщения
Вы не можете удалять свои сообщения
Вы не можете голосовать в опросах
Вы не можете прикреплять файлы к сообщениям
Вы не можете скачивать файлы