Димон Черёмушкин - Экспресс-курс по облигациям (2015)

Ответить на тему
 
Автор Сообщение

Yulya ®

Димон Черёмушкин | Экспресс-курс по облигациям (2015) PCRec -Автор (режиссер): Димон Черёмушкин
Жанр: Трейдинг
Описание:
Данный курс создан для быстрого освоения российского рынка облигаций. Я сделал его, чтобы вам не пришлось тратить дни и недели разбираясь с толстыми талмудами по теории облигаций. Благодаря этому курсу вы сможете уже буквально через час покупать и продавать облигации с пониманием.
Я разделил курс на 2 части. Первая посвящена теории облигаций. Я постарался вместить в эту часть только самое важное и убрать второстепенные вещи, которые вам с первых дней не понадобятся. Вторая часть это – практика. Самое ценное, пожалуй, для любого человека это увидеть, как на практике происходит отбор и покупка облигаций. После прохождения второй части вы сможете самостоятельно оценивать и покупать облигации.
Продолжительность: 02:27:05
Качество видео: PCRec
Видео: AVC/H.264, 1280x720, ~200 kbps
Аудио: AAC, 2 ch, 147 kbps

Содержание курса:

Введение
Что такое облигация
Зачем трейдеру и инвестору торговать облигации
Обращение облигаций в России
Подробнее об облигациях
Виды облигаций
Ценообразование облигации
Купон
Виды доходности
Основные виды доходностей
Риск/доходность
Цена облигации и процентная ставка ЦБ
Дюрация
Практика
Настройка терминала Quik для торговли облигаций
Оценка облигаций
Ресурсы интернет

Mediainfo:

Код:
Video: MPEG4 Video (H264) 1280x720 30fps 200kbps [V: L-SMASH Video Handler (h264 high L3.1, yuv420p, 1280x720, 200 kb/s)] Audio: AAC 48000Hz stereo 147kbps [A: L-SMASH Audio Handler (aac lc, 48000 Hz, stereo, 147 kb/s)]
Видео
Идентификатор                            : 1
Формат                                   : AVC
Формат/Информация                        : Advanced Video Codec
Профиль формата                          : High@L3.1
Параметр CABAC формата                   : Да
Параметр ReFrames формата                : 4 кадра
Идентификатор кодека                     : avc1
Идентификатор кодека/Информация          : Advanced Video Coding
Продолжительность                        : 1 ч. 12 м.
Битрейт                                  : 200 Кбит/сек
Ширина                                   : 1280 пикселей
Высота                                   : 720 пикселей
Соотношение сторон                       : 16:9
Режим частоты кадров                     : Постоянный
Частота кадров                           : 30,000 кадров/сек
Цветовое пространство                    : YUV
Субдискретизация насыщенности            : 4:2:0
Битовая глубина                          : 8 бит
Тип развёртки                            : Прогрессивная
Бит/(Пиксели*Кадры)                      : 0.007
Размер потока                            : 104 Мбайт (57%)
Библиотека кодирования                   : x264 core 146 r16 121396c
Настройки программы                      : cabac=1 / ref=3 / deblock=1:0:0 / analyse=0x3:0x113 / me=hex / subme=7 / psy=1 / psy_rd=1.00:0.00 / mixed_ref=1 / me_range=16 / chroma_me=1 / trellis=1 / 8x8dct=1 / cqm=0 / deadzone=21,11 / fast_pskip=1 / chroma_qp_offset=-2 / threads=84 / lookahead_threads=5 / sliced_threads=0 / nr=0 / decimate=1 / interlaced=0 / bluray_compat=0 / stitchable=1 / constrained_intra=0 / bframes=3 / b_pyramid=2 / b_adapt=1 / b_bias=0 / direct=1 / weightb=1 / open_gop=0 / weightp=2 / keyint=infinite / keyint_min=30 / scenecut=40 / intra_refresh=0 / rc_lookahead=40 / rc=2pass / mbtree=1 / bitrate=200 / ratetol=1.0 / qcomp=0.60 / qpmin=5 / qpmax=69 / qpstep=4 / cplxblur=20.0 / qblur=0.5 / vbv_maxrate=2750 / vbv_bufsize=7500 / nal_hrd=none / filler=0 / ip_ratio=1.40 / aq=1:1.00
Дата кодирования                         : UTC 2015-05-29 15:18:49
Дата пометки                             : UTC 2015-05-29 15:18:49
Цветовой диапазон                        : Limited
Основные цвета                           : BT.709
Характеристики трансфера                 : BT.709
Коэффициенты матрицы                     : BT.709
Аудио
Идентификатор                            : 2
Формат                                   : AAC
Формат/Информация                        : Advanced Audio Codec
Профиль формата                          : LC
Идентификатор кодека                     : 40
Продолжительность                        : 1 ч. 12 м.
Вид битрейта                             : Переменный
Битрейт                                  : 147 Кбит/сек
Каналы                                   : 2 канала
Расположение каналов                     : Front: L R
Частота                                  : 48,0 КГц
Частота кадров                           : 46,875 кадров/сек (1024 spf)
Метод сжатия                             : С потерями
Размер потока                            : 76,6 Мбайт (42%)
Дата кодирования                         : UTC 2015-05-29 15:18:49
Дата пометки                             : UTC 2015-05-29 15:18:49
Скачать .torrent

Для того, чтобы скачать торрент-файл

Димон Черёмушкин - Экспресс-курс по облигациям (2015)

с нашего сайта, Вам необходимо Войти на сайт под своим логином! Если у Вас ещё нет логина, тогда Вам нужно сначала Зарегистрироваться!

Как скачивать? · Что такое торрент? · Рейтинг и ограничения

Показать сообщения:    
Ответить на тему

Димон Черёмушкин - Экспресс-курс по облигациям (2015) скачать торрент (torrent), видеоуроки, тренинги, обучающее видео и видеокурсы

Текущее время: Сегодня 03:28

Часовой пояс: GMT + 4



Вы не можете начинать темы
Вы не можете отвечать на сообщения
Вы не можете редактировать свои сообщения
Вы не можете удалять свои сообщения
Вы не можете голосовать в опросах
Вы не можете прикреплять файлы к сообщениям
Вы не можете скачивать файлы