Димон Чёрёмушкин - Мастер Дей-трейдинга (2016)

Ответить на тему
 
Автор Сообщение

Yulya ®

Димон Чёрёмушкин | Мастер Дей-трейдинга (2016) CamRip - Автор (режиссер): Димон Чёрёмушкин
Жанр: Трейдинг
Описание:
Автор курса
Дмитрий Черемушкин начал свою карьеру трейдера в 2005 году,однако, первые 2 года активной торговли не принесли ни рубля дохода. Но потери не сломили его дух. Уже в 2008 году Дмитрий занимает 3 место в конкурсе ЛЧИ, с доходом в 1204%, тем самым обойдя более 280 участников конкурса. В 2012 году занимает второе место среди лучших трейдеров СНГ.
В данный курс включены также фрагменты реальной торговли Дениса Стукалина. Дмитрий и Денис познакомились в 2010 году, когда Дмитрий преподавал скальпинг. Денис является совладельцем компании XELIUS GROUP и действующим успешным дейтрейдером.
Продолжительность: 12:02:04
Качество видео: CamRip
Видео: AVC/H.264, 1280x720, ~112kbps
Аудио: AAC, 2 ch, 53kbps

Mediainfo:

Формат                                   : MPEG-4
Профиль формата : Base Media / Version 2
Идентификатор кодека : mp42 (M4V /mp42/isom)
Размер файла : 81,8 Мбайт
Продолжительность : 1 ч. 3 м.
Общий поток : 181 Кбит/сек
Дата кодирования : UTC 2016-06-09 09:16:57
Дата пометки : UTC 2016-06-09 09:16:57
Видео
Идентификатор : 1
Формат : AVC
Формат/Информация : Advanced Video Codec
Профиль формата : High@L3.1
Параметр CABAC формата : Да
Параметр ReFrames формата : 4 кадра
Параметр GOP формата : M=1, N=125
Идентификатор кодека : avc1
Идентификатор кодека/Информация : Advanced Video Coding
Продолжительность : 1 ч. 3 м.
Продолжительность оригинала : 1 ч. 3 м.
Битрейт : 125 Кбит/сек
Ширина : 1280 пикселей
Высота : 720 пикселей
Соотношение сторон : 16:9
Режим частоты кадров : Постоянный
Частота кадров : 25,000 кадров/сек
Стандарт вещания : PAL
Цветовое пространство : YUV
Субдискретизация насыщенности : 4:2:0
Битовая глубина : 8 бит
Тип развёртки : Прогрессивная
Бит/(Пиксели*Кадры) : 0.005
Размер потока : 56,5 Мбайт (69%)
Размер потока оригинала : 56,5 Мбайт (69%)
Язык : English
Дата кодирования : UTC 2016-06-09 09:16:57
Дата пометки : UTC 2016-06-09 09:16:57
Цветовой диапазон : Limited
Основные цвета : BT.709
Характеристики трансфера : BT.709
Коэффициенты матрицы : BT.709
mdhd_Duration : 3791534
Аудио
Идентификатор : 2
Формат : AAC
Формат/Информация : Advanced Audio Codec
Профиль формата : LC
Идентификатор кодека : 40
Продолжительность : 1 ч. 3 м.
Продолжительность оригинала : 1 ч. 3 м.
Вид битрейта : Постоянный
Битрейт : 53,6 Кбит/сек
Каналы : 2 канала
Расположение каналов : Front: L R
Частота : 44,1 КГц
Частота кадров : 43,066 кадра/сек (1024 spf)
Метод сжатия : С потерями
Размер потока : 24,2 Мбайт (30%)
Размер потока оригинала : 24,2 Мбайт (30%)
Язык : English
Дата кодирования : UTC 2016-06-09 09:16:57
Дата пометки : UTC 2016-06-09 09:16:57
mdhd_Duration : 3785403
Скриншоты:
Скачать .torrent

Для того, чтобы скачать торрент-файл

Димон Чёрёмушкин - Мастер Дей-трейдинга (2016)

с нашего сайта, Вам необходимо Войти на сайт под своим логином! Если у Вас ещё нет логина, тогда Вам нужно сначала Зарегистрироваться!

Как скачивать? · Что такое торрент? · Рейтинг и ограничения

Показать сообщения:    
Ответить на тему

Димон Чёрёмушкин - Мастер Дей-трейдинга (2016) скачать торрент (torrent), видеоуроки, тренинги, обучающее видео и видеокурсы

Текущее время: Сегодня 11:53

Часовой пояс: GMT + 4



Вы не можете начинать темы
Вы не можете отвечать на сообщения
Вы не можете редактировать свои сообщения
Вы не можете удалять свои сообщения
Вы не можете голосовать в опросах
Вы не можете прикреплять файлы к сообщениям
Вы не можете скачивать файлы