Анна Березанская - Бухгалтерский учет 2015. Теория и практика [+Бонусы] (2015)

Ответить на тему
 
Автор Сообщение

Yulya ®

Анна Березанская | Бухгалтерский учет 2015. Теория и практика [+Бонусы] (2015) PCRec - Автор (режиссер): Анна Березанская
Производство: Специалист
Жанр: Видеокурс, Бухгалтерия
Описание:
В основе курса уникальная программа подготовки бухгалтеров, признанная лучшей в Москве. Программа сочетает глубокую теоретическую подготовку и решение большого числа реальных практических задач. Курс читается в соответствии с последними изменениями законодательства, актуальной бухгалтерской, налоговой и судебной практикой. С первого занятия Вы начнете осваивать важнейшие участки Вашей будущей работы: зарегистрируете предприятие, сформируете уставной капитал, оформите первичные документы, начислите заработную плату сотрудникам и, конечно, составите свою первую бухгалтерскую отчетность!
Курс предназначен для специалистов, имеющих навыки бухгалтерского учета и желающих работать на участке по расчету заработной платы: практикующих или начинающих бухгалтеров, бухгалтеров, планирующих возобновить профессиональную деятельность после длительного перерыва, студентов старших курсов профильных вузов.
Курс также будет чрезвычайно полезен руководителям и менеджерам коммерческих предприятий, индивидуальным предпринимателям и собственникам бизнеса.
Программа курса ориентирована на слушателей, начинающих осваивать бухгалтерский учет в соответствии с планом счетов бухгалтерского учета, а также желающих обновить свои знания в соответствии с современными нормативными документами.
Продолжительность: 45:58:52 + 16:44:39 (бонус)
Качество видео: PCRec
Язык: Русский
Видео: WMV3, 688x880-1184x948, ~61 Kbps
Аудио: WMA, 1 ch, 48 Kbps

Mediainfo:

Format                                   : Windows Media
File size : 114 MiB
Duration : 2 h 28 min
Overall bit rate mode : Variable
Overall bit rate : 107 kb/s
Maximum Overall bit rate : 1 670 kb/s
Movie name : Безымянный
Encoded date : UTC 2015-05-17 12:02:13.985
Video
ID : 2
Format : VC-1
Format profile : MP@HL
Codec ID : WMV3
Codec ID/Info : Windows Media Video 9
Codec ID/Hint : WMV3
Description of the codec : Windows Media Video 9
Duration : 2 h 28 min
Bit rate mode : Variable
Bit rate : 45.5 kb/s
Width : 880 pixels
Height : 688 pixels
Display aspect ratio : 1.279
Frame rate : 15.000 FPS
Color space : YUV
Chroma subsampling : 4:2:0
Bit depth : 8 bits
Scan type : Progressive
Compression mode : Lossy
Bits/(Pixel*Frame) : 0.005
Stream size : 48.5 MiB (42%)
Language : English (United States)
Audio
ID : 1
Format : WMA
Format version : Version 2
Codec ID : 161
Codec ID/Info : Windows Media Audio
Description of the codec : Windows Media Audio 9.2 - 48 kbps, 44 kHz, mono (A/V) 1-pass CBR
Duration : 2 h 28 min
Bit rate mode : Constant
Bit rate : 48.0 kb/s
Channel(s) : 1 channel
Sampling rate : 44.1 kHz
Bit depth : 16 bits
Stream size : 51.2 MiB (45%)
Language : English (United States)

По окончании курса Вы будете уметь:

  • Грамотно составлять первичные бухгалтерские документы и проверять документы контрагентов.
  • Формировать учетные регистры, которые дают информацию о приходах и расходах средств на предприятии, о возникновении долгов вашей фирмы перед партнерами и партнеров перед вашей фирмой, об увеличении и уменьшении капиталов на вашем предприятии, а также другие группировки информации за требуемый период, необходимые для анализа деятельности вашей фирмы.
  • Отражать в бухгалтерском учете приход и расход денежных средств и другого имущества.
  • Отражать в бухгалтерском учете взаимоотношения с поставщиками и подрядчиками, покупателями и заказчиками, расчеты по претензиям при поставках товарно-материальных ценностей.
  • Отражать в бухгалтерском учете операции с подотчетными лицами по приобретениям для хозяйственных нужд предприятия и командировочным расходам.
  • Начислять заработную плату работникам, пособия по временной нетрудоспособности, беременности и родам, рассчитывать и отражать в учете удержания налога на доходы физических лиц, алиментов, недостач с работников, сумму к выплате, а также знать порядок депонирования заработной платы. Рассчитывать взносы на социальное страхование.
  • Отражать и возмещать НДС при покупке товарно-материальных ценностей работ, услуг, а также начислять НДС при продаже товаров, продукции, работ, услуг, заполнять счета-фактуры, а также книги продаж и покупок.
  • Формировать себестоимость готовой продукции, оказанных услуг или выполненных работ. Различать доходы по обычным видам деятельности от прочих расходов.
  • Рассчитывать финансовый результат по хозяйственной деятельности, анализировать влияние на прибыль (убыток) расходов и доходов предприятия.
  • Отражать операции покупки и реализации товаров в оптовой и розничной торговле.
  • Закрывать финансовый год при реформации баланса.

Бонус:

Расчеты с персоналом по оплате труда - Специалист
На занятиях Вы в простой и доступной форме освоите проведение расчетов с персоналом по заработной плате и страховым взносам.
Скриншоты:
Скачать .torrent

Для того, чтобы скачать торрент-файл

Анна Березанская - Бухгалтерский учет 2015. Теория и практика [+Бонусы] (2015)

с нашего сайта, Вам необходимо Войти на сайт под своим логином! Если у Вас ещё нет логина, тогда Вам нужно сначала Зарегистрироваться!

Как скачивать? · Что такое торрент? · Рейтинг и ограничения

Показать сообщения:    
Ответить на тему

Анна Березанская - Бухгалтерский учет 2015. Теория и практика [+Бонусы] (2015) скачать торрент (torrent), видеоуроки, тренинги, обучающее видео и видеокурсы

Текущее время: Сегодня 10:47

Часовой пояс: GMT + 4



Вы не можете начинать темы
Вы не можете отвечать на сообщения
Вы не можете редактировать свои сообщения
Вы не можете удалять свои сообщения
Вы не можете голосовать в опросах
Вы не можете прикреплять файлы к сообщениям
Вы не можете скачивать файлы