StudyFoto - Работа с внешней вспышкой на улице (2013)

Ответить на тему
 
Автор Сообщение

Yulya ®

-StudyFoto - Работа с внешней вспышкой на улице (2013)- Автор (режиссер): "studyfoto"
Жанр: Мастер - класс
Курс ведёт: Ксения Комендацкая
Продолжительность: 01:21:46
Качество видео: PCRec
Видеокодек: AVC
Битрейт видео: ~24fps 193kbps
Размер кадра: 1280x720
Аудиокодек: AAC
Битрейт аудио: 44100Hz stereo 93kbps
Описание:
80 минут полезных советов по работе с внешней вспышкой на улице
Техника работы со вспышкой при съемке вечером, на закате и днем на ярком солнце
Моделирование света и заполнение теней при помощи внешней вспышки

Дополнительная информация:

В программе мастер-класса:

- Когда можно использовать вспышку на улице и зачем
- Особенности выставления настроек при съемке со вспышкой на улице
- Вспышка на камере, на выносе и на стойке
- Съемка на закате со вспышкой
- Съемка ночного (вечернего) портрета на улице со вспышкой
- Съемка днем на улице со вспышкой
- Использование дополнительных насадок на вспышку при съемке на улице

MI

Общее
Полное имя : D:\Торренты\внешняя вспышка на улице.mp4
Формат : MPEG-4
Профиль формата : Base Media / Version 2
Идентификатор кодека : mp42
Размер файла : 169 Мбайт
Продолжительность : 1 ч. 21 м.
Общий поток : 289 Кбит/сек
Дата кодирования : UTC 2013-04-25 19:58:53
Дата пометки : UTC 2013-04-25 19:58:53
Видео
Идентификатор : 1
Формат : AVC
Формат/Информация : Advanced Video Codec
Профиль формата : [url=mailto:High@L3.1]High@L3.1[/url]
Параметр CABAC формата : Да
Параметр ReFrames формата : 4 кадра
Идентификатор кодека : avc1
Идентификатор кодека/Информация : Advanced Video Coding
Продолжительность : 1 ч. 21 м.
Продолжительность оригинала : 1 ч. 21 м.
Вид битрейта : Переменный
Битрейт : 193 Кбит/сек
Ширина : 1280 пикселей
Высота : 720 пикселей
Соотношение сторон : 16:9
Режим частоты кадров : Постоянный
Частота кадров : 24,000 кадра/сек
Цветовое пространство : YUV
Субдискретизация насыщенности : 4:2:0
Битовая глубина : 8 бит
Тип развёртки : Прогрессивная
Бит/(Пиксели*Кадры) : 0.009
Размер потока : 113 Мбайт (67%)
Размер потока оригинала : 113 Мбайт (67%)
Язык : English
Дата кодирования : UTC 2013-04-25 19:58:53
Дата пометки : UTC 2013-04-25 19:58:53
mdhd_Duration : 4906098
Основные цвета : BT.709
Характеристики трансфера : BT.709
Коэффициенты матрицы : BT.709
Аудио
Идентификатор : 2
Формат : AAC
Формат/Информация : Advanced Audio Codec
Профиль формата : LC
Идентификатор кодека : 40
Продолжительность : 1 ч. 21 м.
Продолжительность оригинала : 1 ч. 21 м.
Вид битрейта : Постоянный
Битрейт : 93,5 Кбит/сек
Каналы : 2 канала
Расположение каналов : Front: L R
Частота : 44,1 КГц
Метод сжатия : С потерями
Размер потока : 54,7 Мбайт (32%)
Размер потока оригинала : 54,7 Мбайт (32%)
Язык : English
Дата кодирования : UTC 2013-04-25 19:58:53
Дата пометки : UTC 2013-04-25 19:58:53
mdhd_Duration : 4909595
Скриншоты:
Скачать .torrent

Для того, чтобы скачать торрент-файл

StudyFoto - Работа с внешней вспышкой на улице (2013)

с нашего сайта, Вам необходимо Войти на сайт под своим логином! Если у Вас ещё нет логина, тогда Вам нужно сначала Зарегистрироваться!

Как скачивать? · Что такое торрент? · Рейтинг и ограничения

ilmira

Спасибо!

Гнннадий

Спасибо !!!
Показать сообщения:    
Ответить на тему

StudyFoto - Работа с внешней вспышкой на улице (2013) скачать торрент (torrent), видеоуроки, тренинги, обучающее видео и видеокурсы

Текущее время: Сегодня 04:00

Часовой пояс: GMT + 4



Вы не можете начинать темы
Вы не можете отвечать на сообщения
Вы не можете редактировать свои сообщения
Вы не можете удалять свои сообщения
Вы не можете голосовать в опросах
Вы не можете прикреплять файлы к сообщениям
Вы не можете скачивать файлы