Олег Биргер - Интенсив по инвестициям в недвижимость (2014)

Ответить на тему
 
Автор Сообщение

Yulya ®

Олег Биргер | Интенсив по инвестициям в недвижимость (2014) WEB-DL [H.264] - Автор (режиссер): Олег Биргер
Производство: Бизнес клуб GRAND
Жанр: Инвестиции
Описание:
Запись 3-х дней интенсива по инвестициям в недвижимость от Олега Биргера.
Тренинг про то как составить стратегию инвестирования, как выбрать недвижимость для покупки, как сдать или продать её и заработать на этом. А также разбор нескольких стратегий.
Продолжительность: 21:30:16
Качество видео: WEB-DL
Видео: AVC/H.264, 640х360, ~500 Kbps
Аудио: AAC, 2 ch, 128 Kbps, CBR

Mediainfo:

Код:
General
Complete name                            : C:\Torrents\Биргер Олег - Интенсив по недвижимости (2014)\День 1. Постановка целей - ч01.mp4
Format                                   : MPEG-4
Format profile                           : Base Media
Codec ID                                 : isom
File size                                : 81.2 MiB
Duration                                 : 40mn 40s
Overall bit rate mode                    : Variable
Overall bit rate                         : 279 Kbps
Writing application                      : Lavf54.37.100
Video
ID                                       : 1
Format                                   : AVC
Format/Info                              : Advanced Video Codec
Format profile                           : High@L3.0
Format settings, CABAC                   : Yes
Format settings, ReFrames                : 4 frames
Codec ID                                 : avc1
Codec ID/Info                            : Advanced Video Coding
Duration                                 : 40mn 39s
Bit rate                                 : 172 Kbps
Nominal bit rate                         : 500 Kbps
Width                                    : 640 pixels
Height                                   : 360 pixels
Display aspect ratio                     : 16:9
Frame rate mode                          : Constant
Frame rate                               : 25.000 fps
Color space                              : YUV
Chroma subsampling                       : 4:2:0
Bit depth                                : 8 bits
Scan type                                : Progressive
Bits/(Pixel*Frame)                       : 0.030
Stream size                              : 50.2 MiB (62%)
Writing library                          : x264 core 124
Encoding settings                        : cabac=1 / ref=3 / deblock=1:0:0 / analyse=0x3:0x113 / me=hex / subme=7 / psy=1 / psy_rd=1.00:0.00 / mixed_ref=1 / me_range=16 / chroma_me=1 / trellis=1 / 8x8dct=1 / cqm=0 / deadzone=21,11 / fast_pskip=1 / chroma_qp_offset=-2 / threads=4 / sliced_threads=0 / nr=0 / decimate=1 / interlaced=0 / bluray_compat=0 / constrained_intra=0 / bframes=3 / b_pyramid=2 / b_adapt=1 / b_bias=0 / direct=1 / weightb=1 / open_gop=0 / weightp=2 / keyint=250 / keyint_min=25 / scenecut=40 / intra_refresh=0 / rc_lookahead=40 / rc=abr / mbtree=1 / bitrate=500 / ratetol=1.0 / qcomp=0.60 / qpmin=0 / qpmax=69 / qpstep=4 / ip_ratio=1.40 / aq=1:1.00
Audio
ID                                       : 2
Format                                   : AAC
Format/Info                              : Advanced Audio Codec
Format profile                           : LC
Codec ID                                 : 40
Duration                                 : 40mn 40s
Bit rate mode                            : Variable
Bit rate                                 : 100 Kbps
Maximum bit rate                         : 128 Kbps
Channel(s)                               : 2 channels
Channel positions                        : Front: L R
Sampling rate                            : 44.1 KHz
Compression mode                         : Lossy
Stream size                              : 29.2 MiB (36%)

Программа тренинга:

1 день
- основы инвестирования
- ведение и планирование бюджета
- разработка, постановка и спецификация цели
- самые популярные стратегии
2 день
- инвестирование во вторичную недвижимость
- инвестирование с небольшими вложениями
- заработок на субаренде и аренде
- инструменты для быстрого поиска и выбора объектов
- все про новостройки
3 день
- заработок на перепродаже недвижимости
- аукционная недвижимость
- как купить ниже рынка
- как продать выше рынка
- допродажи в недвижимости
- стратегия инвестирования в новостройки
- выбор кредитного продукта
- реинжиниринг стратегий инвестирования и выход из сделки
- множественные стратегии и бизнес модель
Скачать .torrent

Для того, чтобы скачать торрент-файл

Олег Биргер - Интенсив по инвестициям в недвижимость (2014)

с нашего сайта, Вам необходимо Войти на сайт под своим логином! Если у Вас ещё нет логина, тогда Вам нужно сначала Зарегистрироваться!

Как скачивать? · Что такое торрент? · Рейтинг и ограничения

Показать сообщения:    
Ответить на тему

Олег Биргер - Интенсив по инвестициям в недвижимость (2014) скачать торрент (torrent), видеоуроки, тренинги, обучающее видео и видеокурсы

Текущее время: Сегодня 23:49

Часовой пояс: GMT + 4



Вы не можете начинать темы
Вы не можете отвечать на сообщения
Вы не можете редактировать свои сообщения
Вы не можете удалять свои сообщения
Вы не можете голосовать в опросах
Вы не можете прикреплять файлы к сообщениям
Вы не можете скачивать файлы