[Profileschool] Александр Свет - Мастер-класс МК Концертная фотография сьемка и обработка (2014)

Ответить на тему
 
Автор Сообщение

Yulya ®

-[Profileschool] Александр Свет - Мастер-класс МК Концертная фотография сьемка и обработка (2014)- Автор (режиссер): Александр Свет
Жанр: Обучающее видео
Продолжительность: 02:58:33
Качество видео: PCRec
Видеокодек: H264
Битрейт видео: 618kbps
Размер кадра: 1120x622
Аудиокодек: AAC
Битрейт аудио: 53kbps
Описание:
Современная концертная фотография – это сочетание классических техник съемки и новейших приемов обработки. Без полного владения техникой невозможно поймать яркий момент, получить эмоциональный, интересный кадр. Но лишь с помощью обработки можно создать законченную концертную фотографию: раскрыть всю атмосферу выступления, подобрать гармоничные цвета и проработать детали кадра.
О съемке, обработке и многих других аспектах концертной фотографии расскажет известный концертный фотограф и специалист по обработке RAW – Александр Свет.
Мастер-класс состоит из двух частей. Первая часть – основы концертной фотографии, технические особенности съемки и разбор большого количества фотографий с концертов. Вторая часть – полностью посвящена обработке, практическим приемам работы с RAW и цветокоррекции концертных фотографий.

Программа МК

● Как попасть на концерт и получить максимум от ваших фотографий.
● Технические особенности концертной фотографии: оборудование, работа с экспозицией и фокусировкой.
● Жанровая портретная съемка на пресс-конференциях музыкантов.
● Фото-кейсы. Смотрим, разбираем и анализируем концертные фотографии.
● Главные принципы обработки концертных фотографий.
● Правильный процесс быстрого отбора и качественной обработки.
● Практика обработки концертных фотографий: простые и эффективные приемы работы с RAW-файлами.
● Красивое Ч/Б в концертной фотографии.
● Создаем "вкусную" картинку. Работа с цветом, светом и деталями кадра.

МедиаИнфо:

General
Complete name : H:\tutorials\profileschool.ru\Александр Свет - МК Концертная фотография сьемка и обработка (2014)\Концертная фотография.mp4
Format : MPEG-4
Format profile : Base Media / Version 2
Codec ID : mp42
File size : 861 MiB
Duration : 2h 58mn
Overall bit rate : 674 Kbps
Encoded date : UTC 2014-07-14 18:26:49
Tagged date : UTC 2014-07-14 18:26:49
Video
ID : 1
Format : AVC
Format/Info : Advanced Video Codec
Format profile : [url=mailto:High@L4.0]High@L4.0[/url]
Format settings, CABAC : Yes
Format settings, ReFrames : 4 frames
Codec ID : avc1
Codec ID/Info : Advanced Video Coding
Duration : 2h 58mn
Source duration : 2h 58mn
Bit rate : 619 Kbps
Width : 1 120 pixels
Height : 622 pixels
Display aspect ratio : 16:9
Frame rate mode : Constant
Frame rate : 15.000 fps
Color space : YUV
Chroma subsampling : 4:2:0
Bit depth : 8 bits
Scan type : Progressive
Bits/(Pixel*Frame) : 0.059
Stream size : 790 MiB (92%)
Source stream size : 790 MiB (92%)
Language : English
Encoded date : UTC 2014-07-14 18:26:49
Tagged date : UTC 2014-07-14 18:26:49
Color primaries : BT.709
Transfer characteristics : BT.709
Matrix coefficients : BT.709
mdhd_Duration : 10716229
Audio
ID : 2
Format : AAC
Format/Info : Advanced Audio Codec
Format profile : LC
Codec ID : 40
Duration : 2h 58mn
Source duration : 2h 58mn
Bit rate mode : Constant
Bit rate : 52.8 Kbps
Channel count : 2 channels
Channel positions : Front: L R
Sampling rate : 44.1 KHz
Compression mode : Lossy
Stream size : 67.8 MiB (8%)
Source stream size : 67.8 MiB (8%)
Language : English
Encoded date : UTC 2014-07-14 18:26:49
Tagged date : UTC 2014-07-14 18:26:49
mdhd_Duration : 10770892
Скриншоты:
Скачать .torrent

Для того, чтобы скачать торрент-файл

[Profileschool] Александр Свет - Мастер-класс МК Концертная фотография сьемка и обработка (2014)

с нашего сайта, Вам необходимо Войти на сайт под своим логином! Если у Вас ещё нет логина, тогда Вам нужно сначала Зарегистрироваться!

Как скачивать? · Что такое торрент? · Рейтинг и ограничения

Показать сообщения:    
Ответить на тему

[Profileschool] Александр Свет - Мастер-класс МК Концертная фотография сьемка и обработка (2014) скачать торрент (torrent), видеоуроки, тренинги, обучающее видео и видеокурсы

Текущее время: Сегодня 09:18

Часовой пояс: GMT + 4



Вы не можете начинать темы
Вы не можете отвечать на сообщения
Вы не можете редактировать свои сообщения
Вы не можете удалять свои сообщения
Вы не можете голосовать в опросах
Вы не можете прикреплять файлы к сообщениям
Вы не можете скачивать файлы