Дмитрий Ащепков - Мегапродавец (2015)

Ответить на тему
 
Автор Сообщение

Yulya ®

Дмитрий Ащепков | Мегапродавец (2015) WEBRip [H.264] - Автор (режиссер): Дмитрий Ащепков
Производство: Россия
Жанр: Продажи
Описание:
В данном видеокурсе рассматриваются важнейшие аспекты продаж.
Повторная продажа
Напоминать клиенту о себе и подстрекать к повторной покупке
Удерживать завоеванное в прошлый раз доверие
Получать у клиентов список потенциальных клиентов
Скрипт
Составите идеальный сценарий продаж
Научитесь использовать скрипт и не запинаться
Сможете закрывать клиента в любой ситуации
Возражения
Отвечать на любые клиентские возражения
«Крыть» вопросы по поводу недостатков продукта
Перехватывать инициативу в разговоре

Другие аспекты

Выход на ЛПР
Узнаете, кем бывают лица, принимающие решения
Научитесь обходить секретаря и выходить на ЛПР
Сумеете заинтересовать ЛПР с первых слов
Звонок
Выучите 3 правила эффективного звонка
Узнаете, в какое время лучше звонить по телефону
Поймете, как начать и чем закончить разговор
Письмо
Научитесь продавать с помощью писем
Сможете доставить письмо к нужному человеку
Сумеете заставить открыть письмо и замаскировать продажу
Коммерческое предложение
Составите эффективное коммерческое предложение
Научитесь эффективно использовать горячие и холодные «компреды»
Сделаете такое КП, которое не потеряется и не забудется
Встреча и закрытие
Узнаете 3 вещи, о которых нельзя забывать на встречах
Научитесь презентовать продукт в выгодном свете
Сумеете «закрыть» клиента после встречи
Продолжительность: 02:49:00
Качество видео: WEBRip
Видео: AVC, 1680x1050, ~1000 kbps
Аудио: AAC, 2 ch, 128 kbps, CBR

Mediainfo:

Код:
Общее
Полное имя                               : C:\Users\Leonid\Documents\Бесплатный траф\ДЛЯ ТОРРЕНТОВ\[Дмитрий Ащепков] Мегапродавец (2015)\МегаПродавец 2015\AutoPlay\Docs\1.1.flv
Формат                                   : Flash Video
Размер файла                             : 1,32 Гбайт
Продолжительность                        : 2 ч. 49 м.
Общий поток                              : 1117 Кбит/сек
Программа кодирования                    : Open Broadcaster Software v0.651b
fileSize                                 : 1418790545.000
Видео
Продолжительность                        : 2 ч. 49 м.
Битрейт                                  : 1000 Кбит/сек
Ширина                                   : 1680 пикселей
Высота                                   : 1050 пикселей
Соотношение сторон                       : 16:10
Режим частоты кадров                     : Постоянный
Частота кадров                           : 15,000 кадров/сек
Бит/(Пиксели*Кадры)                      : 0.038
Размер потока                            : 1,18 Гбайт (90%)
Аудио
Формат                                   : AAC
Формат/Информация                        : Advanced Audio Codec
Профиль формата                          : LC
Идентификатор кодека                     : 10
Продолжительность                        : 2 ч. 49 м.
Битрейт                                  : 128 Кбит/сек
Каналы                                   : 2 канала
Расположение каналов                     : Front: L R
Частота                                  : 48,0 КГц
Метод сжатия                             : С потерями
Размер потока                            : 155 Мбайт (11%)
Скачать .torrent

Для того, чтобы скачать торрент-файл

Дмитрий Ащепков - Мегапродавец (2015)

с нашего сайта, Вам необходимо Войти на сайт под своим логином! Если у Вас ещё нет логина, тогда Вам нужно сначала Зарегистрироваться!

Как скачивать? · Что такое торрент? · Рейтинг и ограничения

Показать сообщения:    
Ответить на тему

Дмитрий Ащепков - Мегапродавец (2015) скачать торрент (torrent), видеоуроки, тренинги, обучающее видео и видеокурсы

Текущее время: Сегодня 18:03

Часовой пояс: GMT + 4



Вы не можете начинать темы
Вы не можете отвечать на сообщения
Вы не можете редактировать свои сообщения
Вы не можете удалять свои сообщения
Вы не можете голосовать в опросах
Вы не можете прикреплять файлы к сообщениям
Вы не можете скачивать файлы