Дамир Халилов - Новые инструменты продвижения во вконтакте (2014)

Ответить на тему
 
Автор Сообщение

Yulya ®

Дамир Халилов | Новые инструменты продвижения во вконтакте (2014) PCRec- Автор (режиссер): Дамир Халилов
Жанр: Вконтакте, Бизнес
Продолжительность: 05:00:00
Качество видео: PCRec
Видеокодек: AVC
Битрейт видео: ~370 kbps
Размер кадра: 1280x720
Аудиокодек: AAC 2.0
Битрейт аудио: 128 kbps (CBR), 2 Ch, 22000 Hz
Описание:
5-часовой онлайн-тренинг с пошаговыми инструкциями от Дамира Халилова. Как использовать самую большую социальную сеть в СНГ для бизнеса?
Программа тренинга:
-Новые принципы брендирования сообществ во вконтакте
-20 сервисов для эффективной работы во Вконтакте
-17 шаблонов вирусных постов во ВКонтакте
-Таргетированная реклама: как снизить стоимость в 10 раз
-Эффективная работа с посевом в пабликах ВКонтакте
-Вирусный маркетинг во ВКонтакте
-Как провести эффективный конкурс во ВКонтакте

Дополнительная информация:

Чему вы научитесь:
Построение системы продаж через группу
Привлечение целевой аудитории в группу
Правильно позиционировать сообщество
Построение системы продаж через приложения
Внедрение в в сообщество продающих элементов
Использовать промо-посев Вконтакте
Построение системы продаж через «Поиск по товарам»
Создание витрины магазина в группе
Работать с негативом в ваших сообществах
Создавать продающий дизайн сообщества
Бороться с троллингом
Работать с основным системами веб-аналитики
Понимать и отслеживать тренды в соц. Сетях
Снижать стоимость целевых действий
Оптимизировать бюджет рекламной компании в соц. Сетях
Проводить SWOT-анализ
Формулировать УТП
Избежать штрафных санкций при продвижении

MediaInfo:

Общее
Формат : MPEG-4
Профиль формата : Base Media
Идентификатор кодека : isom
Размер файла : 530 Мбайт
Режим общего битрейта : Переменный
Общий поток : 412 Кбит/сек
Программа кодирования : Lavf55.48.100
Видео
Идентификатор : 1
Формат : AVC
Формат/Информация : Advanced Video Codec
Профиль формата : High@L3.1
Параметр CABAC формата : Да
Параметр ReFrames формата : 5 кадров
Параметр GOP формата : N=7
Идентификатор кодека : avc1
Идентификатор кодека/Информация : Advanced Video Coding
Битрейт : 370 Кбит/сек
Номинальный битрейт : 1048 Кбит/сек
Ширина : 1280 пикселей
Высота : 720 пикселей
Соотношение сторон : 16:9
Режим частоты кадров : Постоянный
Частота кадров : 15,000 кадров/сек
Цветовое пространство : YUV
Субдискретизация насыщенности : 4:2:0
Битовая глубина : 8 бит
Тип развёртки : Прогрессивная
Бит/(Пиксели*Кадры) : 0.027
Размер потока : 476 Мбайт (90%)
Аудио
Идентификатор : 2
Формат : AAC
Формат/Информация : Advanced Audio Codec
Профиль формата : LC
Идентификатор кодека : 40
Вид битрейта : Переменный
Битрейт : 38,0 Кбит/сек
Максимальный битрейт : 128 Кбит/сек
Каналы : 2 канала
Channel(s)_Original : 1 канал
Расположение каналов : Front: C
Частота : 22,05 КГц
Метод сжатия : С потерями
Размер потока : 48,9 Мбайт (9%)
Скриншоты:
Скачать .torrent

Для того, чтобы скачать торрент-файл

Дамир Халилов - Новые инструменты продвижения во вконтакте (2014)

с нашего сайта, Вам необходимо Войти на сайт под своим логином! Если у Вас ещё нет логина, тогда Вам нужно сначала Зарегистрироваться!

Как скачивать? · Что такое торрент? · Рейтинг и ограничения

Показать сообщения:    
Ответить на тему

Дамир Халилов - Новые инструменты продвижения во вконтакте (2014) скачать торрент (torrent), видеоуроки, тренинги, обучающее видео и видеокурсы

Текущее время: Сегодня 04:02

Часовой пояс: GMT + 4



Вы не можете начинать темы
Вы не можете отвечать на сообщения
Вы не можете редактировать свои сообщения
Вы не можете удалять свои сообщения
Вы не можете голосовать в опросах
Вы не можете прикреплять файлы к сообщениям
Вы не можете скачивать файлы