Николай Мрочковский - 25 убойных стратегий инвестирования в недвижимость. Тренинг (2014)

Ответить на тему
 
Автор Сообщение

Yulya ®

Николай Мрочковский | 25 убойных стратегий инвестирования в недвижимость. Тренинг (2014) CamRip- Автор (режиссер): Николай Мрочковский
Жанр: Недвижимость, Бизнес
Продолжительность: 07:31:11
Качество видео: CamRip
Видеокодек: AVC
Битрейт видео: ~597 kbps
Размер кадра: 854х480
Аудиокодек: AAC 2.0
Битрейт аудио: 126 kbps (CBR), 2 Ch, 44100 Hz
Описание:
Николай Мрочковский предприниматель, инвестор, автор 57 книг, рекордсмен мира, вошедший в книгу рекордов Гиннеса. В последние несколько лет, а особенно интенсивно – в этом году занимается инвестированием в недвижимость в разных ее проявлениях. Это действительно сильнейший инструмент, как для создания капитала, так и для обеспечения себе стабильного пассивного денежного потока.
Что вы получите:
Пошаговую стратегию для старта
25 самых эффективных способов инвестирования в недвижимость с учетом изменений в законодательстве в 2014 году
7,5 часов видео в хорошем качестве с подробным разбором каждой стратегии
После этого тренинга вы больше не сможете оставаться в стороне от инвестирования и гарантировано начнете действовать

Дополнительная информация:

Содержание мастер-класса:
* Пошагово разбираем, что нужно для старта (обязательно для всех, кто только начинает инвестировать, иначе напортачите)
* Почему делаем так, а не иначе (прямые советы)
* Типовые грабли, на которые наступают 90% новичков и что мы делаем по-другому
* Как, наконец, перейти от теории к практике (личный опыт)
* ТОП-фундаментальных принципов инвестирования в России, о которых не говорит Богатый Папа25 неочевидных стратегий инвестирования
(ключевая тема тренинга)
* Николай Мрочковский, Стас Рождественский
* Какую стратегию выбрать
* Примеры стратегий на практике в Москве и в регионахКак абсолютно легально получить одобрение по ипотеке, даже если у вас плохая кредитная история и вам уже отказали в нескольких банках
* Секреты ипотеки , Алексей Волков, Мария Рождественская
* Как работает ипотека на самом деле
* Минимальные ставки по кредиту, почему на деле оказывается, что после одобрения % становится больше чем в рекламе и как этого избежать
* Как получать одобрение абсолютно легально, без связей и левых схем
* 2 критерия, из-за которых вам никогда не даст ипотеку ни один банк
* Контакты компании, которая помогает с ипотекой на льготных условияхПрактика инвестиции в Санкт-Петербурге, 5 интеллигентных стратегий от Дарьи Ковалевской
* Какие преимущества открывает туристический город и как преображаются инвест-Хостелы, квартирники и прочие трендовые инвест-проекты на примере Питера
* Совместные инвестиции в других городах, пример организации инвест-клубаЗона БАТУМИ. Инвестиции в недвижимость в игорных зонах
* Можно ли инвестировать в другой стране и какие выгоды это дает
* Инвест-десант в Грузии – прямая линия и общение с застройщиками игровых зон и казино
* Тонкости и местный менталитетДоход на посуточной аренде от Андрея Сазонова
* Бизнес-план «Посуточная аренда»
* Как заселять ежедневно более 40 квартир
* Структура компании, которую можно построить за 3 месяца с нуля и минимальными затратами
* Штурмовые конструкции в посуточной арендеИнвестиции в Таунхаусы с последующей сдачей в аренду
* Как делать в 2 раза больше денег, чем в новостройках
* Ключевые моменты, на которые необходимо обратить внимание при покупке таунхауса для сдачи в аренду
* Как взять таунхаус для сдачи в аренду вообще без денег
* VIP-штурмовая конструкция, которая приносит до 400 тысяч рублей с каждого объектаАццкие штурмовые конструкции в недвижимости
* Бизнес на героях
* Как удвоить площадь своего дома
* Secret Place

MediaInfo:

Общее
Формат : MPEG-4
Профиль формата : Base Media
Идентификатор кодека : isom
Размер файла : 614 Мбайт
Режим общего битрейта : Переменный
Общий поток : 726 Кбит/сек
Видео
Идентификатор : 1
Формат : AVC
Формат/Информация : Advanced Video Codec
Профиль формата : Main@L3.0
Параметр CABAC формата : Да
Параметр ReFrames формата : 3 кадра
Идентификатор кодека : avc1
Идентификатор кодека/Информация : Advanced Video Coding
Битрейт : 597 Кбит/сек
Ширина : 854 пикселя
Высота : 480 пикселей
Соотношение сторон : 16:9
Режим частоты кадров : Постоянный
Частота кадров : 25,000 кадров/сек
Цветовое пространство : YUV
Субдискретизация насыщенности : 4:2:0
Битовая глубина : 8 бит
Тип развёртки : Прогрессивная
Бит/(Пиксели*Кадры) : 0.058
Размер потока : 504 Мбайт (82%)
Размер потока оригинала : 504 Мбайт (82%)
Аудио
Идентификатор : 2
Формат : AAC
Формат/Информация : Advanced Audio Codec
Профиль формата : LC
Идентификатор кодека : 40
Вид битрейта : Переменный
Битрейт : 126 Кбит/сек
Каналы : 2 канала
Расположение каналов : Front: L R
Частота : 44,1 КГц
Метод сжатия : С потерями
Размер потока : 106 Мбайт (17%)
Скриншоты:
Скачать .torrent

Для того, чтобы скачать торрент-файл

Николай Мрочковский - 25 убойных стратегий инвестирования в недвижимость. Тренинг (2014)

с нашего сайта, Вам необходимо Войти на сайт под своим логином! Если у Вас ещё нет логина, тогда Вам нужно сначала Зарегистрироваться!

Как скачивать? · Что такое торрент? · Рейтинг и ограничения

Показать сообщения:    
Ответить на тему

Николай Мрочковский - 25 убойных стратегий инвестирования в недвижимость. Тренинг (2014) скачать торрент (torrent), видеоуроки, тренинги, обучающее видео и видеокурсы

Текущее время: Сегодня 08:53

Часовой пояс: GMT + 4



Вы не можете начинать темы
Вы не можете отвечать на сообщения
Вы не можете редактировать свои сообщения
Вы не можете удалять свои сообщения
Вы не можете голосовать в опросах
Вы не можете прикреплять файлы к сообщениям
Вы не можете скачивать файлы