Вера Семенова - Быстрый старт в недвижимости. Мастер-класс (2014)

Ответить на тему
 
Автор Сообщение

Yulya ®

Вера Семенова | Быстрый старт в недвижимости. Мастер-класс (2014) CamRip- Автор (режиссер): Вера Семенова
Жанр: Недвижимость, бизнес
Продолжительность: 05:00:00
Качество видео: CamRip
Видеокодек: AVC
Битрейт видео: ~458 kbps
Размер кадра: 640х360
Аудиокодек: AAC 2.0
Битрейт аудио: 112 kbps (CBR), 2 Ch, 48000 Hz
Описание:
Недвижимость была и остается одним из самых привлекательных способов найти, сохранить и приумножить. Это «вечный» бизнес. Пещера была, есть и будет основным пристанищем человека. Но! Для быстрого, успешного старта необходимо структурное понимание, система, конкретные шаги. Именно поэтому, мы решили провести короткий, пошаговый, мастер-класс для быстрого и успешного старта в недвижимости.

Дополнительная информация:

Содержание
День 1 – Знакомство с рынком недвижимости. Виды и подвиды.
День 2 – Основные и самые эффективные способы поиска клиентов.
День 3 – Формирование клиентской базы. Активная работа с контактами.
День 4 – Поиск холодных клиентов и основы эффективной работы с ними.
День 5 – Тайм-менеджмент. Постановка цели и планирование работы.
День 6 – Инструменты и ресурсы для рекламы объектов.
День 7 – Основы анализа рынка и объектов недвижимости.
День 8 – Назначение презентации. Золотые правила успешного риэлтора.
День 9 – Встреча с клиентом и его объектом.
День 10 – Заключение эксклюзивного договора с клиентом.
День 11 – Старт продаж объекта. Основные способы размещения рекламы.
День 12 – Использование рекламных инструментов при продаже объекта.
День 13 – Оценка эффективности рекламы. Сравнение и анализ основных показателей.
День 14 – Увеличение клиентской базы. Прием входящих звонков от потенциальных клиентов.
День 15 – Основы показа объекта. Фишки и секреты.
День 16 – Аукцион или последовательность. Основные плюсы и минусы.
День 17 – Аванс и конечная цена. Подведение и анализ итогов проделанной работы по объекту.
День 18 – Подготовка к сделке.
День 19 – Ведение сделки. Ключевые факторы «гладкой сделки» и «счастливого клиента».
День 20 – Передача объекта и рекомендации.
День 21 – Перевод клиента в режим «не забывать и напоминать».

MediaInfo:

Общее
Формат : AVC
Профиль формата : Base Media / Version 2
Идентификатор кодека : mp42
Режим общего битрейта : Переменный
Общий поток : 458 Кбит/сек
Видео
Идентификатор : 1
Формат : AVC
Формат/Информация : Advanced Video Codec
Профиль формата : High@L3.1
Параметр CABAC формата : Да
Параметр ReFrames формата : 4 кадра
Идентификатор кодека : avc1
Идентификатор кодека/Информация : Advanced Video Coding
Битрейт : 342 Кбит/сек
Ширина : 640 пикселей
Высота : 360 пикселей
Соотношение сторон : 16:9
Режим частоты кадров : Постоянный
Частота кадров : 23,976 кадра/сек
Цветовое пространство : YUV
Субдискретизация насыщенности : 4:2:0
Битовая глубина : 8 бит
Тип развёртки : Прогрессивная
Бит/(Пиксели*Кадры) : 0.062
Размер потока : 46,0 Мбайт (75%)
Аудио
Идентификатор : 2
Формат : AAC
Формат/Информация : Advanced Audio Codec
Профиль формата : LC
Идентификатор кодека : 40
Вид битрейта : Переменный
Битрейт : 112 Кбит/сек
Каналы : 2 канала
Расположение каналов : Front: L R
Частота : 48,0 КГц
Метод сжатия : С потерями
Размер потока : 15,1 Мбайт (24%)
Скриншоты:
Скачать .torrent

Для того, чтобы скачать торрент-файл

Вера Семенова - Быстрый старт в недвижимости. Мастер-класс (2014)

с нашего сайта, Вам необходимо Войти на сайт под своим логином! Если у Вас ещё нет логина, тогда Вам нужно сначала Зарегистрироваться!

Как скачивать? · Что такое торрент? · Рейтинг и ограничения

Показать сообщения:    
Ответить на тему

Вера Семенова - Быстрый старт в недвижимости. Мастер-класс (2014) скачать торрент (torrent), видеоуроки, тренинги, обучающее видео и видеокурсы

Текущее время: Сегодня 02:45

Часовой пояс: GMT + 4



Вы не можете начинать темы
Вы не можете отвечать на сообщения
Вы не можете редактировать свои сообщения
Вы не можете удалять свои сообщения
Вы не можете голосовать в опросах
Вы не можете прикреплять файлы к сообщениям
Вы не можете скачивать файлы