[Profileschool] Александр Свет - Мастер-класс Репортаж на заказ. Коммерческая репортажная фотография (2014)

Ответить на тему
 
Автор Сообщение

Yulya ®

-[Profileschool] Александр Свет - Мастер-класс Репортаж на заказ. Коммерческая репортажная фотография (2014)- Автор (режиссер): Александр Свет
Жанр: Обучающее видео
Продолжительность: 02:22:27+01:07:03+01:30:25
Качество видео: PCRec
Видеокодек: Windows Media Video 9
Битрейт видео: ~397kbps
Размер кадра: 1280x808
Аудиокодек: WMA
Битрейт аудио: 128 Kbps
Описание:
Коммерческая репортажная фотография – абсолютно уникальный жанр, который сочетает в себе различные направления фотодела. Это съемка и многотысячных музыкальных фестивалей и небольших частных мероприятий, работа на международных бизнес-конференциях или закрытых спортивных соревнованиях. Главная задача коммерческого репортажного фотографа – качественно отснять мероприятие независимо от места и условий съемки. Именно об этом расскажет фотограф Александр Свет на большом, четырех часовом онлайн мастер-классе.
Мастер-класс состоит из четырех частей, которые охватывают все аспекты профессиональной коммерческой репортажной фотографии:
1. Основы коммерческого репортажа. Все необходимые теоретические знания для профессиональной работы на мероприятиях.
2. Работа со вспышкой на репортаже. Все, что нужно знать для съемки мероприятий со вспышкой: работа в помещении и на улице, использование насадок на вспышку, синхронизация нескольких вспышек и многое другое.
3. Обработка репортажных фотографий. Вы узнаете, как быстро работать с большими объемами фотографий и создавать качественную, яркую и интересную обработку всех кадров.
4. Общение с клиентом. Все тонкости работы с разными типами заказчиков (эвент-агентсва, частные и корпоративные клиенты), особенности коммерческой репортажной фотографии как бизнеса.

МедиаИнфо:

General
Complete name : H:\tutorials\profileschool.ru\Александр Свет - МК Репортаж на заказ. Коммерческая репортажная фотография (2014)\01.wmv
Format : Windows Media
File size : 542 MiB
Duration : 2h 22mn
Overall bit rate mode : Variable
Overall bit rate : 532 Kbps
Maximum Overall bit rate : 1 090 Kbps
Encoded date : UTC 2014-10-24 09:00:37.665
SfOriginalFPS : 240000
Video
ID : 2
Format : VC-1
Format profile : MP@HL
Codec ID : WMV3
Codec ID/Info : Windows Media Video 9
Codec ID/Hint : WMV3
Description of the codec : Windows Media Video 9 - Professional
Duration : 2h 22mn
Bit rate mode : Variable
Bit rate : 397 Kbps
Width : 1 280 pixels
Height : 808 pixels
Display aspect ratio : 16:10
Frame rate : 24.000 fps
Color space : YUV
Chroma subsampling : 4:2:0
Bit depth : 8 bits
Scan type : Progressive
Compression mode : Lossy
Bits/(Pixel*Frame) : 0.016
Stream size : 405 MiB (75%)
Language : Russian
Audio
ID : 1
Format : WMA
Format version : Version 2
Codec ID : 161
Codec ID/Info : Windows Media Audio
Description of the codec : Windows Media Audio 9.2 - 128 kbps, 44 kHz, stereo (A/V) 1-pass CBR
Duration : 2h 22mn
Bit rate mode : Constant
Bit rate : 128 Kbps
Channel count : 2 channels
Sampling rate : 44.1 KHz
Bit depth : 16 bits
Stream size : 130 MiB (24%)
Language : Russian
Скриншоты:
Скачать .torrent

Для того, чтобы скачать торрент-файл

[Profileschool] Александр Свет - Мастер-класс Репортаж на заказ. Коммерческая репортажная фотография (2014)

с нашего сайта, Вам необходимо Войти на сайт под своим логином! Если у Вас ещё нет логина, тогда Вам нужно сначала Зарегистрироваться!

Как скачивать? · Что такое торрент? · Рейтинг и ограничения

Показать сообщения:    
Ответить на тему

[Profileschool] Александр Свет - Мастер-класс Репортаж на заказ. Коммерческая репортажная фотография (2014) скачать торрент (torrent), видеоуроки, тренинги, обучающее видео и видеокурсы

Текущее время: Сегодня 00:18

Часовой пояс: GMT + 4



Вы не можете начинать темы
Вы не можете отвечать на сообщения
Вы не можете редактировать свои сообщения
Вы не можете удалять свои сообщения
Вы не можете голосовать в опросах
Вы не можете прикреплять файлы к сообщениям
Вы не можете скачивать файлы