MasterClass.com - Hans Zimmer Teaches Film Scoring (2017)

Ответить на тему
 
Автор Сообщение

Yulya ®

MasterClass.com | Hans Zimmer Teaches Film Scoring (2017) PCRec [H.264] - Автор (режиссер): Hans Zimmer
Производство: MasterClass.com
Жанр: Создание музыки
Описание:
Ханс Циммер учит писать музыку к фильмам.
Ханс Циммер обучит вас тому, как рассказать историю при помощи музыки в более чем 30 эксклюзивных видео-уроках.
Ханс Циммер не видел фильмов, пока ему не исполнилось 12 лет. С тех пор он написал музыку к более 100 фильмам, в том числе "Миссия невыполнима 2", "Начало", "Человек дождя", "Тёмный рыцарь", "Гладиатор", "Шерлок Холмс", "Интерстеллар" и "Король Лев".
В этом мастер-классе самоучка и обладатель премии Оскар покажет, как он создаёт звуки из ничего, сочиняет убедительные темы для персонажей, и пишет партитуры для фильмов, прежде чем их увидит. К концу этого мастер-класса вы будете иметь всё что вам нужно, чтобы рассказать вашу историю музыкой.
Продолжительность: 05:42:42
Качество видео: PCRec
Перевод: Дублированный, Васёк218
Язык озвучки: Русский, Английский
Видео: AVC/H.264, 960x540, ~553-717 Kbps
Аудио 1: MP3, 2 ch, 128 Kbps - Русский, дублированный (Васёк218)
Аудио 2: AAC, 2 ch, 128 Kbps - Английский, оригинал

Mediainfo:

General
Complete name : 01. Introduction.mp4
Format : MPEG-4
Format profile : Base Media
Codec ID : isom
File size : 20.9 MiB
Duration : 3mn 31s
Overall bit rate : 827 Kbps
Video
ID : 1
Format : AVC
Format/Info : Advanced Video Codec
Format profile : High@L3.1
Format settings, CABAC : Yes
Format settings, ReFrames : 4 frames
Codec ID : avc1
Codec ID/Info : Advanced Video Coding
Duration : 3mn 31s
Bit rate : 564 Kbps
Width : 960 pixels
Height : 540 pixels
Display aspect ratio : 16:9
Frame rate mode : Constant
Frame rate : 23.976 fps
Color space : YUV
Chroma subsampling : 4:2:0
Bit depth : 8 bits
Scan type : Progressive
Bits/(Pixel*Frame) : 0.045
Stream size : 14.2 MiB (68%)
Writing library : x264 core 144 r2525 40bb568
Language : English
Audio #1
ID : 2
Format : MPEG Audio
Format version : Version 1
Format profile : Layer 3
Mode : Joint stereo
Codec ID : 6B
Duration : 3mn 31s
Bit rate mode : Constant
Bit rate : 128 Kbps
Channel(s) : 2 channels
Sampling rate : 48.0 KHz
Compression mode : Lossy
Stream size : 3.23 MiB (15%)
Language : Russian
Audio #2
ID : 3
Format : AAC
Format/Info : Advanced Audio Codec
Format profile : LC
Codec ID : 40
Duration : 3mn 31s
Bit rate mode : Constant
Bit rate : 128 Kbps
Channel(s) : 2 channels
Channel positions : Front: L R
Sampling rate : 44.1 KHz
Compression mode : Lossy
Stream size : 3.23 MiB (15%)
Language : English

Дополнительная информация:

Файлы упражнений прилагаются к курсу.
Дополнительная информация на офсайте.
Как выбрать звуковую дорожку по умолчанию (ссылка).
Скриншоты:
Скачать .torrent

Для того, чтобы скачать торрент-файл

MasterClass.com - Hans Zimmer Teaches Film Scoring (2017)

с нашего сайта, Вам необходимо Войти на сайт под своим логином! Если у Вас ещё нет логина, тогда Вам нужно сначала Зарегистрироваться!

Как скачивать? · Что такое торрент? · Рейтинг и ограничения

Показать сообщения:    
Ответить на тему

MasterClass.com - Hans Zimmer Teaches Film Scoring (2017) скачать торрент (torrent), видеоуроки, тренинги, обучающее видео и видеокурсы

Текущее время: Сегодня 05:13

Часовой пояс: GMT + 4



Вы не можете начинать темы
Вы не можете отвечать на сообщения
Вы не можете редактировать свои сообщения
Вы не можете удалять свои сообщения
Вы не можете голосовать в опросах
Вы не можете прикреплять файлы к сообщениям
Вы не можете скачивать файлы