Александр Пурнов - Опционы на старт (2017)

Ответить на тему
 
Автор Сообщение

Yulya ®

Александр Пурнов | Опционы на старт (2017) PCRec - Автор (режиссер): Александр Пурнов
Жанр: Трейдинг,Опционы
Описание:
Уникальная авторская методика Александра Пурнова по направленной торговли опционами. Курс подходит для новичков и опытных трейдеров.
Курс “Опционы На Старт!” - что это?
-путеводитель по вселенной “Направленная торговля опционами”
-базовые фундаментальные принципы работы с опционами
-преимущество при торговле и спекуляциях опционами
-секреты биржевой торговли опционами на Московской бирже от Александра Пурнова
-абсолютный контроль рисков трейдера – полное отсутствие «сливных» сделок
Этот курс особенно полезен тем трейдерам, которые осваивают торговлю по методу побарного анализа
Если Вы:
-уже начинаете видеть уровни покупок и продаж
-умеете отличать слабого покупателя от сильного
то опционные сделки Вам принесут прибыль гораздо легче и стабильнее.
И самое главное торговля опционами позволит избежать основных ошибок в трейдинге - постоянное срывание стопов и ранний вход в сделку.
Опционы позволяют войти в позицию более надежно и легче. Если Вы хотите постоянно испытывать психологический комфорт при торговле, ощущать себя не дичью, а охотником, планомерно расставляющим силки и получающим прибыль при любом неожиданном движении рынка в любую сторону, то этот курс именно для Вас!
Продолжительность: 22:42:22
Качество видео: PCRec
Видео: AVC/H.264, 1280x720, ~226kbps
Аудио: AAC, 2 ch, 125kbps

Mediainfo:

General
Complete name : F:\Опционы на старт 2017\Июнь\1.1 Природа опциона часть1.mp4
Format : MPEG-4
Format profile : Base Media / Version 2
Codec ID : mp42 (isom/mp42)
File size : 190 MiB
Duration : 1 h 1 min
Overall bit rate mode : Variable
Overall bit rate : 432 kb/s
Encoded date : UTC 2018-01-15 09:47:27
Tagged date : UTC 2018-01-15 09:47:27
gsst : 0
gstd : 3684031
Video
ID : 1
Format : AVC
Format/Info : Advanced Video Codec
Format profile : Main@L3.1
Format settings, CABAC : Yes
Format settings, ReFrames : 3 frames
Codec ID : avc1
Codec ID/Info : Advanced Video Coding
Duration : 1 h 1 min
Bit rate : 303 kb/s
Width : 1 280 pixels
Height : 720 pixels
Display aspect ratio : 16:9
Frame rate mode : Constant
Frame rate : 29.970 (30000/1001) FPS
Color space : YUV
Chroma subsampling : 4:2:0
Bit depth : 8 bits
Scan type : Progressive
Bits/(Pixel*Frame) : 0.011
Stream size : 133 MiB (70%)
Title : ISO Media file produced by Google Inc. Created on: 01/15/2018.
Encoded date : UTC 2018-01-15 09:47:27
Tagged date : UTC 2018-01-15 09:47:27
Color range : Limited
Color primaries : BT.709
Transfer characteristics : BT.709
Matrix coefficients : BT.709
Audio
ID : 2
Format : AAC
Format/Info : Advanced Audio Codec
Format profile : LC
Codec ID : 40
Duration : 1 h 1 min
Bit rate mode : Variable
Bit rate : 126 kb/s
Channel(s) : 2 channels
Channel positions : Front: L R
Sampling rate : 44.1 kHz
Frame rate : 43.066 FPS (1024 spf)
Compression mode : Lossy
Stream size : 55.2 MiB (29%)
Title : ISO Media file produced by Google Inc. Created on: 01/15/2018.
Encoded date : UTC 2018-01-15 09:47:27
Tagged date : UTC 2018-01-15 09:47:27
General
Complete name : F:\Опционы на старт 2017\Июнь\1.1 Природа опциона часть2.mp4
Format : MPEG-4
Format profile : Base Media / Version 2
Codec ID : mp42 (isom/mp42)
File size : 648 MiB
Duration : 1 h 15 min
Overall bit rate mode : Variable
Overall bit rate : 1 204 kb/s
Encoded date : UTC 2017-12-21 10:41:55
Tagged date : UTC 2017-12-21 10:41:55
gsst : 0
gstd : 4513865
Video
ID : 1
Format : AVC
Format/Info : Advanced Video Codec
Format profile : High@L3.1
Format settings, CABAC : Yes
Format settings, ReFrames : 1 frame
Format settings, GOP : M=1, N=60
Codec ID : avc1
Codec ID/Info : Advanced Video Coding
Duration : 1 h 15 min
Bit rate : 1 009 kb/s
Maximum bit rate : 2 646 kb/s
Width : 1 280 pixels
Height : 720 pixels
Display aspect ratio : 16:9
Frame rate mode : Constant
Frame rate : 30.000 FPS
Color space : YUV
Chroma subsampling : 4:2:0
Bit depth : 8 bits
Scan type : Progressive
Bits/(Pixel*Frame) : 0.036
Stream size : 543 MiB (84%)
Tagged date : UTC 2017-12-21 10:42:13
Color range : Limited
Color primaries : BT.709
Transfer characteristics : BT.709
Matrix coefficients : BT.709
Audio
ID : 2
Format : AAC
Format/Info : Advanced Audio Codec
Format profile : LC
Codec ID : 40
Duration : 1 h 15 min
Bit rate mode : Variable
Bit rate : 192 kb/s
Maximum bit rate : 202 kb/s
Channel(s) : 2 channels
Channel positions : Front: L R
Sampling rate : 44.1 kHz
Frame rate : 43.066 FPS (1024 spf)
Compression mode : Lossy
Stream size : 103 MiB (16%)
Title : IsoMedia File Produced by Google, 5-11-2011
Encoded date : UTC 2017-12-21 10:42:06
Tagged date : UTC 2017-12-21 10:42:13
General
Complete name : F:\Опционы на старт 2017\Июнь\1.2 Профили доходности.mp4
Format : MPEG-4
Format profile : Base Media / Version 2
Codec ID : mp42 (isom/mp42)
File size : 548 MiB
Duration : 1 h 15 min
Overall bit rate mode : Variable
Overall bit rate : 1 019 kb/s
Encoded date : UTC 2017-12-21 12:11:05
Tagged date : UTC 2017-12-21 12:11:05
gsst : 0
gstd : 4511171
Video
ID : 1
Format : AVC
Format/Info : Advanced Video Codec
Format profile : High@L3.1
Format settings, CABAC : Yes
Format settings, ReFrames : 1 frame
Codec ID : avc1
Codec ID/Info : Advanced Video Coding
Duration : 1 h 15 min
Bit rate : 825 kb/s
Maximum bit rate : 2 862 kb/s
Width : 1 280 pixels
Height : 720 pixels
Display aspect ratio : 16:9
Frame rate mode : Constant
Frame rate : 27.945 FPS
Color space : YUV
Chroma subsampling : 4:2:0
Bit depth : 8 bits
Scan type : Progressive
Bits/(Pixel*Frame) : 0.032
Stream size : 444 MiB (81%)
Tagged date : UTC 2017-12-21 12:11:20
Color range : Limited
Color primaries : BT.709
Transfer characteristics : BT.709
Matrix coefficients : BT.709
Audio
ID : 2
Format : AAC
Format/Info : Advanced Audio Codec
Format profile : LC
Codec ID : 40
Duration : 1 h 15 min
Bit rate mode : Variable
Bit rate : 192 kb/s
Maximum bit rate : 202 kb/s
Channel(s) : 2 channels
Channel positions : Front: L R
Sampling rate : 44.1 kHz
Frame rate : 43.066 FPS (1024 spf)
Compression mode : Lossy
Stream size : 103 MiB (19%)
Title : IsoMedia File Produced by Google, 5-11-2011
Encoded date : UTC 2017-12-21 12:11:14
Tagged date : UTC 2017-12-21 12:11:20
General
Complete name : F:\Опционы на старт 2017\Июнь\1.3 Торговля правами.mp4
Format : MPEG-4
Format profile : Base Media / Version 2
Codec ID : mp42 (isom/mp42)
File size : 189 MiB
Duration : 1 h 14 min
Overall bit rate mode : Variable
Overall bit rate : 356 kb/s
Encoded date : UTC 2018-01-15 12:11:24
Tagged date : UTC 2018-01-15 12:11:24
gsst : 0
gstd : 4453471
Video
ID : 1
Format : AVC
Format/Info : Advanced Video Codec
Format profile : Main@L3.1
Format settings, CABAC : Yes
Format settings, ReFrames : 3 frames
Codec ID : avc1
Codec ID/Info : Advanced Video Coding
Duration : 1 h 14 min
Bit rate : 227 kb/s
Width : 1 280 pixels
Height : 720 pixels
Display aspect ratio : 16:9
Frame rate mode : Constant
Frame rate : 29.970 (30000/1001) FPS
Color space : YUV
Chroma subsampling : 4:2:0
Bit depth : 8 bits
Scan type : Progressive
Bits/(Pixel*Frame) : 0.008
Stream size : 120 MiB (64%)
Title : ISO Media file produced by Google Inc. Created on: 01/15/2018.
Encoded date : UTC 2018-01-15 12:11:24
Tagged date : UTC 2018-01-15 12:11:24
Color range : Limited
Color primaries : BT.709
Transfer characteristics : BT.709
Matrix coefficients : BT.709
Audio
ID : 2
Format : AAC
Format/Info : Advanced Audio Codec
Format profile : LC
Codec ID : 40
Duration : 1 h 14 min
Bit rate mode : Variable
Bit rate : 126 kb/s
Channel(s) : 2 channels
Channel positions : Front: L R
Sampling rate : 44.1 kHz
Frame rate : 43.066 FPS (1024 spf)
Compression mode : Lossy
Stream size : 66.7 MiB (35%)
Title : ISO Media file produced by Google Inc. Created on: 01/15/2018.
Encoded date : UTC 2018-01-15 12:11:24
Tagged date : UTC 2018-01-15 12:11:24
General
Complete name : F:\Опционы на старт 2017\Июнь\1.4 Терминалы и сервисы.mp4
Format : MPEG-4
Format profile : Base Media / Version 2
Codec ID : mp42 (isom/mp42)
File size : 559 MiB
Duration : 1 h 14 min
Overall bit rate mode : Variable
Overall bit rate : 1 052 kb/s
Encoded date : UTC 2017-12-21 15:13:54
Tagged date : UTC 2017-12-21 15:13:54
gsst : 0
gstd : 4457231
Video
ID : 1
Format : AVC
Format/Info : Advanced Video Codec
Format profile : High@L3.1
Format settings, CABAC : Yes
Format settings, ReFrames : 1 frame
Format settings, GOP : M=1, N=60
Codec ID : avc1
Codec ID/Info : Advanced Video Coding
Duration : 1 h 14 min
Bit rate : 857 kb/s
Maximum bit rate : 2 850 kb/s
Width : 1 280 pixels
Height : 720 pixels
Display aspect ratio : 16:9
Frame rate mode : Constant
Frame rate : 30.000 FPS
Color space : YUV
Chroma subsampling : 4:2:0
Bit depth : 8 bits
Scan type : Progressive
Bits/(Pixel*Frame) : 0.031
Stream size : 456 MiB (81%)
Tagged date : UTC 2017-12-21 15:14:12
Color range : Limited
Color primaries : BT.709
Transfer characteristics : BT.709
Matrix coefficients : BT.709
Audio
ID : 2
Format : AAC
Format/Info : Advanced Audio Codec
Format profile : LC
Codec ID : 40
Duration : 1 h 14 min
Bit rate mode : Variable
Bit rate : 192 kb/s
Maximum bit rate : 203 kb/s
Channel(s) : 2 channels
Channel positions : Front: L R
Sampling rate : 44.1 kHz
Frame rate : 43.066 FPS (1024 spf)
Compression mode : Lossy
Stream size : 102 MiB (18%)
Title : IsoMedia File Produced by Google, 5-11-2011
Encoded date : UTC 2017-12-21 15:14:04
Tagged date : UTC 2017-12-21 15:14:12
General
Complete name : F:\Опционы на старт 2017\Июнь\2.1 Графики торговли.mp4
Format : MPEG-4
Format profile : Base Media
Codec ID : isom (isom/iso2/avc1/mp41)
File size : 724 MiB
Duration : 46 min 9 s
Overall bit rate : 2 192 kb/s
Encoded date : UTC 2018-02-10 14:00:41
Tagged date : UTC 2018-02-10 14:00:41
Writing application : Lavf57.40.101
Video
ID : 2
Format : AVC
Format/Info : Advanced Video Codec
Format profile : Main@L3.1
Format settings, CABAC : Yes
Format settings, ReFrames : 1 frame
Format settings, GOP : M=1, N=25
Codec ID : avc1
Codec ID/Info : Advanced Video Coding
Duration : 46 min 9 s
Bit rate : 1 990 kb/s
Width : 1 280 pixels
Height : 720 pixels
Display aspect ratio : 16:9
Frame rate mode : Constant
Frame rate : 29.970 (30000/1001) FPS
Color space : YUV
Chroma subsampling : 4:2:0
Bit depth : 8 bits
Scan type : Progressive
Bits/(Pixel*Frame) : 0.072
Stream size : 657 MiB (91%)
Encoded date : UTC 2018-02-10 14:00:41
Tagged date : UTC 2018-02-10 14:00:41
Audio
ID : 1
Format : AAC
Format/Info : Advanced Audio Codec
Format profile : LC
Codec ID : 40
Duration : 46 min 8 s
Bit rate mode : Constant
Bit rate : 192 kb/s
Channel(s) : 2 channels
Channel positions : Front: L R
Sampling rate : 44.1 kHz
Frame rate : 43.066 FPS (1024 spf)
Compression mode : Lossy
Stream size : 64.4 MiB (9%)
Default : Yes
Alternate group : 1
Encoded date : UTC 2018-02-10 14:00:41
Tagged date : UTC 2018-02-10 14:00:41
General
Complete name : F:\Опционы на старт 2017\Июнь\3.1 Направленные стратегии.mp4
Format : MPEG-4
Format profile : Base Media / Version 2
Codec ID : mp42 (isom/mp42)
File size : 546 MiB
Duration : 1 h 11 min
Overall bit rate mode : Variable
Overall bit rate : 1 075 kb/s
Encoded date : UTC 2017-12-23 23:16:32
Tagged date : UTC 2017-12-23 23:16:32
gsst : 0
gstd : 4262648
Video
ID : 1
Format : AVC
Format/Info : Advanced Video Codec
Format profile : High@L3.1
Format settings, CABAC : Yes
Format settings, ReFrames : 1 frame
Format settings, GOP : M=1, N=60
Codec ID : avc1
Codec ID/Info : Advanced Video Coding
Duration : 1 h 11 min
Bit rate : 881 kb/s
Maximum bit rate : 3 061 kb/s
Width : 1 280 pixels
Height : 720 pixels
Display aspect ratio : 16:9
Frame rate mode : Constant
Frame rate : 30.000 FPS
Color space : YUV
Chroma subsampling : 4:2:0
Bit depth : 8 bits
Scan type : Progressive
Bits/(Pixel*Frame) : 0.032
Stream size : 448 MiB (82%)
Tagged date : UTC 2017-12-23 23:16:52
Color range : Limited
Color primaries : BT.709
Transfer characteristics : BT.709
Matrix coefficients : BT.709
Audio
ID : 2
Format : AAC
Format/Info : Advanced Audio Codec
Format profile : LC
Codec ID : 40
Duration : 1 h 11 min
Bit rate mode : Variable
Bit rate : 192 kb/s
Maximum bit rate : 202 kb/s
Channel(s) : 2 channels
Channel positions : Front: L R
Sampling rate : 44.1 kHz
Frame rate : 43.066 FPS (1024 spf)
Compression mode : Lossy
Stream size : 97.6 MiB (18%)
Title : IsoMedia File Produced by Google, 5-11-2011
Encoded date : UTC 2017-12-23 23:16:44
Tagged date : UTC 2017-12-23 23:16:52
Скриншоты:
Скачать .torrent

Для того, чтобы скачать торрент-файл

Александр Пурнов - Опционы на старт (2017)

с нашего сайта, Вам необходимо Войти на сайт под своим логином! Если у Вас ещё нет логина, тогда Вам нужно сначала Зарегистрироваться!

Как скачивать? · Что такое торрент? · Рейтинг и ограничения

Показать сообщения:    
Ответить на тему

Александр Пурнов - Опционы на старт (2017) скачать торрент (torrent), видеоуроки, тренинги, обучающее видео и видеокурсы

Текущее время: Сегодня 00:44

Часовой пояс: GMT + 4



Вы не можете начинать темы
Вы не можете отвечать на сообщения
Вы не можете редактировать свои сообщения
Вы не можете удалять свои сообщения
Вы не можете голосовать в опросах
Вы не можете прикреплять файлы к сообщениям
Вы не можете скачивать файлы