Ксения Комендацкая - Цветокоррекция для продвинутых (2013)

Ответить на тему
 
Автор Сообщение

Yulya ®

-Ксения Комендацкая - Цветокоррекция для продвинутых (2013)- Автор (режиссер): Ксения Комендацкая
Жанр: Обучающие видео-уроки
Продолжительность: 01:00:01
Качество видео: PCRec
Видеокодек: AVC
Битрейт видео: ~131 kb/s
Размер кадра: 1280x720
Аудиокодек: AAC
Битрейт аудио: 93,7 kb/s, 2 Ch
Описание:
1 час полезной информации и технических приемов работы с цветом в фотографии.
Эффективные способы цветокоррекции в программах Lightroom и Photoshop.
Универсальные правила работы с цветом при обработке цифровых фотографий.
Оптимальное сочетание полуавтоматических и ручных способов цветокоррекции.

В программе мастер-класса:

- Немного теории цвета: цветовые сочетания и взаимодействие цветов
- Законы взаимозависимости цвета и света в природе: естественный цветовой контраст
- Баланс белого и его влияние на цвет в цифровой фотографии
- Технические приемы цветокоррекции в Lightroom: особенности работы с цветовыми каналами, сплит-тонирование снимка
- Цветокоррекция в Photoshop: корректирующие слои, цветовой баланс и насыщенность, работа с отдельными каналами, тонирование, использование градиентов, выравнивание цветового тона
- Дополнительные инструменты цветокоррекции: эффективное использование некоторых плагинов для цветокоррекции в Photoshop
- Практика: обработка фотографии в теплых тонах, в холодных тонах, натуральная обработка и создание цветового контраста за счет сочетания теплых и холодных оттенков на одном снимке, тонировка в винтажном стиле, создание "ванильной" картинки
Рекомендуется слушателям, владеющим базовыми навыками обработки фотографий в программах Photoshop и Lightroom

MediaInfo:

Код:
Общее
Полное имя                               : C:\Комендацкая К. - Цветокоррекция для продвинутых - 2014.mp4
Формат                                   : MPEG-4
Профиль формата                          : Base Media / Version 2
Идентификатор кодека                     : mp42
Размер файла                             : 97,2 Мбайт
Продолжительность                        : 1 ч. 0 м.
Общий поток                              : 226 Кбит/сек
Дата кодирования                         : UTC 2013-01-15 07:04:59
Дата пометки                             : UTC 2013-01-15 07:04:59
Видео
Идентификатор                            : 1
Формат                                   : AVC
Формат/Информация                        : Advanced Video Codec
Профиль формата                          : [url=mailto:High@L3.1]High@L3.1[/url]
Параметр CABAC формата                   : Да
Параметр ReFrames формата                : 4 кадра
Параметр GOP формата                     : M=1, N=75
Идентификатор кодека                     : avc1
Идентификатор кодека/Информация          : Advanced Video Coding
Продолжительность                        : 1 ч. 0 м.
Продолжительность оригинала              : 1 ч. 0 м.
Битрейт                                  : 131 Кбит/сек
Ширина                                   : 1280 пикселей
Высота                                   : 720 пикселей
Соотношение сторон                       : 16:9
Режим частоты кадров                     : Постоянный
Частота кадров                           : 15,000 кадров/сек
Цветовое пространство                    : YUV
Субдискретизация насыщенности            : 4:2:0
Битовая глубина                          : 8 бит
Тип развёртки                            : Прогрессивная
Бит/(Пиксели*Кадры)                      : 0.009
Размер потока                            : 56,2 Мбайт (58%)
Размер потока оригинала                  : 56,2 Мбайт (58%)
Язык                                     : English
Дата кодирования                         : UTC 2013-01-15 07:04:59
Дата пометки                             : UTC 2013-01-15 07:04:59
Основные цвета                           : BT.709
Характеристики трансфера                 : BT.709
Коэффициенты матрицы                     : BT.709
mdhd_Duration                            : 3600564
Аудио
Идентификатор                            : 2
Формат                                   : AAC
Формат/Информация                        : Advanced Audio Codec
Профиль формата                          : LC
Идентификатор кодека                     : 40
Продолжительность                        : 1 ч. 0 м.
Продолжительность оригинала              : 1 ч. 0 м.
Вид битрейта                             : Постоянный
Битрейт                                  : 93,7 Кбит/сек
Каналы                                   : 2 канала
Расположение каналов                     : Front: L R
Частота                                  : 44,1 КГц
Метод сжатия                             : С потерями
Размер потока                            : 40,2 Мбайт (41%)
Размер потока оригинала                  : 40,2 Мбайт (41%)
Язык                                     : English
Дата кодирования                         : UTC 2013-01-15 07:04:59
Дата пометки                             : UTC 2013-01-15 07:04:59
mdhd_Duration                            : 3597816
Скриншоты:
Скачать .torrent

Для того, чтобы скачать торрент-файл

Ксения Комендацкая - Цветокоррекция для продвинутых (2013)

с нашего сайта, Вам необходимо Войти на сайт под своим логином! Если у Вас ещё нет логина, тогда Вам нужно сначала Зарегистрироваться!

Как скачивать? · Что такое торрент? · Рейтинг и ограничения

Показать сообщения:    
Ответить на тему

Ксения Комендацкая - Цветокоррекция для продвинутых (2013) скачать торрент (torrent), видеоуроки, тренинги, обучающее видео и видеокурсы

Текущее время: Сегодня 16:39

Часовой пояс: GMT + 4



Вы не можете начинать темы
Вы не можете отвечать на сообщения
Вы не можете редактировать свои сообщения
Вы не можете удалять свои сообщения
Вы не можете голосовать в опросах
Вы не можете прикреплять файлы к сообщениям
Вы не можете скачивать файлы