Lynda.com - Painter 2017 Essential Training (2016)

Ответить на тему
 
Автор Сообщение

Yulya ®

Lynda.com | Painter 2017 Essential Training (2016) PCRec [H.264/720p-LQ] [RU/EN] - Автор (режиссер): John Derry
Производство: Lynda.com
Жанр: Дизайн, цифровая живопись
Описание:
Базовый курс Corel Painter 2017
Присоединяйтесь к пионеру цифровой живописи Джону Дери в обучении базовым и продвинутым творческим приёмам Corel Painter 2017, которые помогут начинающим начать работу в нём.
Рисуйте с новыми кистями для глазировки, остекления, трафаретов и текстур. Ознакомьтесь с новыми функциями улучшения рабочего процесса (такими как Artist Layouts и Palette Drawers), а затем погрузитесь в самое необходимое.
Узнайте о том, как использовать такие инструменты, как пользовательские палитры, макеты и управление цветом, чтобы сформировать свою рабочую среду.
Рассмотрите цветовую палитру и способы смешивания цветов для любого цифрового изображения, определив при этом так называемые страховочные сетки.
Чтобы проиллюстрировать концепции, представленные в этом курсе, Джон Дери показывает, как создать коллаж. Кроме того, автор подчёркивает важность настройки карандаша (стилуса) и показывает, как Painter 2017 переносит традиционный рисунок на следующий качественный уровень.
Данный учебный курс будет полезен студентам и школьникам, которые хотят быстро изучить основы "цифровой" живописи.
Продолжительность: 05:13:36
Качество видео: PCRec
Перевод: Дублированный, AlexJP
Язык озвучки: Русский, Английский
Видео: AVC/H.264, 1280x720, ~69-1100 Kbps
Аудио 1: AAC, 1 ch, 128 Kbps - Русский, дублированный (AlexJP)
Аудио 2: AAC, 2 ch, 160 Kbps - Английский, оригинал

Mediainfo:

General
Complete name : 0_02. What's new in Painter 2017.mp4
Format : MPEG-4
Format profile : Base Media
Codec ID : isom
File size : 6.70 MiB
Duration : 1mn 35s
Overall bit rate mode : Variable
Overall bit rate : 591 Kbps
Video
ID : 1
Format : AVC
Format/Info : Advanced Video Codec
Format profile : Main@L3.1
Format settings, CABAC : Yes
Format settings, ReFrames : 5 frames
Codec ID : avc1
Codec ID/Info : Advanced Video Coding
Duration : 1mn 35s
Bit rate mode : Variable
Bit rate : 295 Kbps
Maximum bit rate : 1 000 Kbps
Width : 1 280 pixels
Height : 720 pixels
Display aspect ratio : 16:9
Frame rate mode : Constant
Frame rate : 15.000 fps
Color space : YUV
Chroma subsampling : 4:2:0
Bit depth : 8 bits
Scan type : Progressive
Bits/(Pixel*Frame) : 0.021
Stream size : 3.34 MiB (50%)
Writing library : x264 core 129
Language : English
Audio #1
ID : 2
Format : AAC
Format/Info : Advanced Audio Codec
Format profile : LC
Codec ID : 40
Duration : 1mn 35s
Duration_LastFrame : 37ms
Bit rate mode : Constant
Bit rate : 128 Kbps
Channel(s) : 2 channels
Channel(s)_Original : 1 channel
Channel positions : Front: C
Sampling rate : 44.1 KHz
Compression mode : Lossy
Stream size : 1.45 MiB (22%)
Language : Russian
Audio #2
ID : 3
Format : AAC
Format/Info : Advanced Audio Codec
Format profile : LC
Codec ID : 40
Duration : 1mn 35s
Bit rate mode : Constant
Bit rate : 160 Kbps
Channel(s) : 2 channels
Channel positions : Front: L R
Sampling rate : 48.0 KHz
Compression mode : Lossy
Stream size : 1.81 MiB (27%)
Language : English

Дополнительная информация:

Некоторые темы курса:
- работа с планшетом
- установка пользовательского контента
- навигация по интерфейсу Corel Painter 2017
- настройка своей рабочей среды
- работа с временной цветовой палитрой
- определение страховочных сеток
- установка и сброс свойств кисти
- устранение неполадок в работе кисти
- работа со специальными медиа-форматами.
Примечание: перевод был сделан прежде, чем курс обновился, и поэтому без перевода осталась глава 7 (новые возможности Painter 2018).
Файлы упражнений прилагаются к курсу.
Дополнительная информация на офсайте.
Как выбрать звуковую дорожку по умолчанию (ссылка).
Скриншоты:

Дополнительные скриншоты:

Скачать .torrent

Для того, чтобы скачать торрент-файл

Lynda.com - Painter 2017 Essential Training (2016)

с нашего сайта, Вам необходимо Войти на сайт под своим логином! Если у Вас ещё нет логина, тогда Вам нужно сначала Зарегистрироваться!

Как скачивать? · Что такое торрент? · Рейтинг и ограничения

Показать сообщения:    
Ответить на тему

Lynda.com - Painter 2017 Essential Training (2016) скачать торрент (torrent), видеоуроки, тренинги, обучающее видео и видеокурсы

Текущее время: Сегодня 23:25

Часовой пояс: GMT + 4



Вы не можете начинать темы
Вы не можете отвечать на сообщения
Вы не можете редактировать свои сообщения
Вы не можете удалять свои сообщения
Вы не можете голосовать в опросах
Вы не можете прикреплять файлы к сообщениям
Вы не можете скачивать файлы