LoftSchool - Основы вёрстки (2017)

Ответить на тему
 
Автор Сообщение

Yulya ®

LoftSchool | Основы вёрстки (2017) PCRec [H.264] - Автор (режиссер): LoftSchool
Производство: Владимир Сабанцев
Жанр: Программирование, HTML, CSS
Описание:
Каким бы сложным ни было приложение или сайт, для него всегда нужен интерфейс. И этот интерфейс должен быть сверстан правильно, с прицелом на будущее. Ошибки в верстке видны пользователю сразу же, при первом взгляде. Именно поэтому я приглашаю вас пройти курс по основам верстки, так как сверстал уже больше 300 сайтов различных типов и мне есть, чем с вами поделиться!
Продолжительность: 19:29:33
Качество видео: PCRec
Видео: AVC/H.264, 854-1920x480-1080, ~49-921 Kbps
Аудио: AAC, 2 ch, 125-192 Kbps

Mediainfo:

Общее
Полное имя : \07 CSS Свойство позиционирования\09 CSS Свойства позиционирования часть 1.mp4
Формат : MPEG-4
Профиль формата : Base Media / Version 2
Идентификатор кодека : mp42 (isom/mp42)
Размер файла : 135 Мбайт
Продолжительность : 1 ч. 37 м.
Режим общего битрейта : Переменный
Общий поток : 194 Кбит/сек
Дата кодирования : UTC 2017-12-20 13:03:49
Дата пометки : UTC 2017-12-20 13:03:49
Видео
Идентификатор : 1
Формат : AVC
Формат/Информация : Advanced Video Codec
Профиль формата : Main@L3.1
Параметр CABAC формата : Да
Параметр RefFrames формата : 3 кадра
Идентификатор кодека : avc1
Идентификатор кодека/Информация : Advanced Video Coding
Продолжительность : 1 ч. 37 м.
Продолжительность оригинала : 1 ч. 37 м.
Битрейт : 65,7 Кбит/сек
Ширина : 854 пикселя
Высота : 480 пикселей
Соотношение сторон : 16:9
Режим частоты кадров : Переменный
Частота кадров : 30,000 кадров/сек
Минимальная частота кадров : 30,000 кадров/сек
Максимальная частота кадров : 30,030 кадров/сек
Стандарт вещания : NTSC
Цветовое пространство : YUV
Субдискретизация насыщенности : 4:2:0
Битовая глубина : 8 бит
Тип развёртки : Прогрессивная
Бит/(Пиксели*Кадры) : 0.005
Размер потока : 45,8 Мбайт (34%)
Размер потока оригинала : 45,8 Мбайт (34%)
Язык : English
Дата кодирования : UTC 2017-12-20 13:03:49
Дата пометки : UTC 2017-12-20 13:03:49
Цветовой диапазон : Limited
mdhd_Duration : 5854000
Аудио
Идентификатор : 2
Формат : AAC
Формат/Информация : Advanced Audio Codec
Профиль формата : LC
Идентификатор кодека : 40
Продолжительность : 1 ч. 37 м.
Продолжительность оригинала : 1 ч. 37 м.
Вид битрейта : Переменный
Битрейт : 126 Кбит/сек
Максимальный битрейт : 259 Кбит/сек
Каналы : 2 канала
Расположение каналов : Front: L R
Частота : 44,1 КГц
Частота кадров : 43,066 кадра/сек (1024 SPF)
Метод сжатия : С потерями
Размер потока : 87,7 Мбайт (65%)
Размер потока оригинала : 87,7 Мбайт (65%)
Язык : English
Дата кодирования : UTC 2017-12-20 13:03:49
Дата пометки : UTC 2017-12-20 13:03:49
mdhd_Duration : 5854029
Общее
Полное имя : \05 CSS\CSS. Основы языка. Типы селекторов\Урок 4. Селекторы тегов и атрибутов.mp4
Формат : MPEG-4
Профиль формата : Base Media / Version 2
Идентификатор кодека : mp42 (isom/mp42)
Размер файла : 23,5 Мбайт
Продолжительность : 5 м. 29 с.
Режим общего битрейта : Переменный
Общий поток : 598 Кбит/сек
Дата кодирования : UTC 2017-12-05 10:54:03
Дата пометки : UTC 2017-12-05 10:54:03
gsst : 0
gstd : 329396
Видео
Идентификатор : 1
Формат : AVC
Формат/Информация : Advanced Video Codec
Профиль формата : High@L3.1
Параметр CABAC формата : Да
Параметр RefFrames формата : 1 кадр
Идентификатор кодека : avc1
Идентификатор кодека/Информация : Advanced Video Coding
Продолжительность : 5 м. 29 с.
Битрейт : 451 Кбит/сек
Максимальный битрейт : 3755 Кбит/сек
Ширина : 1280 пикселей
Высота : 720 пикселей
Соотношение сторон : 16:9
Режим частоты кадров : Постоянный
Частота кадров : 30,000 кадров/сек
Цветовое пространство : YUV
Субдискретизация насыщенности : 4:2:0
Битовая глубина : 8 бит
Тип развёртки : Прогрессивная
Бит/(Пиксели*Кадры) : 0.016
Размер потока : 17,7 Мбайт (75%)
Дата пометки : UTC 2017-12-05 10:54:05
Цветовой диапазон : Limited
Основные цвета : BT.709
Характеристики трансфера : BT.709
Коэффициенты матрицы : BT.709
Аудио
Идентификатор : 2
Формат : AAC
Формат/Информация : Advanced Audio Codec
Профиль формата : LC
Идентификатор кодека : 40
Продолжительность : 5 м. 29 с.
Вид битрейта : Переменный
Битрейт : 144 Кбит/сек
Максимальный битрейт : 150 Кбит/сек
Каналы : 1 канал
Расположение каналов : Front: C
Частота : 44,1 КГц
Частота кадров : 43,066 кадра/сек (1024 SPF)
Метод сжатия : С потерями
Размер потока : 5,65 Мбайт (24%)
Заголовок : IsoMedia File Produced by Google, 5-11-2011
Язык : English
Дата кодирования : UTC 2017-12-05 10:54:04
Дата пометки : UTC 2017-12-05 10:54:05
Общее
Полное имя : \04 HTML. Формы и таблицы\04 HTML. Формы и таблицы.mp4
Формат : MPEG-4
Профиль формата : Base Media / Version 2
Идентификатор кодека : mp42 (isom/mp42)
Размер файла : 843 Мбайт
Продолжительность : 2 ч. 10 м.
Режим общего битрейта : Переменный
Общий поток : 904 Кбит/сек
Название фильма : Untitled
Дата кодирования : UTC 2018-01-02 12:34:20
Дата пометки : UTC 2018-01-02 12:34:20
Видео
Идентификатор : 1
Формат : AVC
Формат/Информация : Advanced Video Codec
Профиль формата : Baseline@L4
Параметр CABAC формата : Нет
Параметр RefFrames формата : 3 кадра
Идентификатор кодека : avc1
Идентификатор кодека/Информация : Advanced Video Coding
Продолжительность : 2 ч. 10 м.
Продолжительность оригинала : 2 ч. 10 м.
Битрейт : 743 Кбит/сек
Ширина : 1920 пикселей
Высота : 1080 пикселей
Соотношение сторон : 16:9
Режим частоты кадров : Переменный
Частота кадров : 30,000 кадров/сек
Минимальная частота кадров : 30,000 кадров/сек
Максимальная частота кадров : 30,030 кадров/сек
Стандарт вещания : NTSC
Цветовое пространство : YUV
Субдискретизация насыщенности : 4:2:0
Битовая глубина : 8 бит
Тип развёртки : Прогрессивная
Бит/(Пиксели*Кадры) : 0.012
Размер потока : 693 Мбайт (82%)
Размер потока оригинала : 693 Мбайт (82%)
Язык : English
Дата кодирования : UTC 2018-01-02 12:34:20
Дата пометки : UTC 2018-01-02 12:34:20
Цветовой диапазон : Limited
mdhd_Duration : 7826567
Аудио
Идентификатор : 2
Формат : AAC
Формат/Информация : Advanced Audio Codec
Профиль формата : LC
Идентификатор кодека : 40
Продолжительность : 2 ч. 10 м.
Продолжительность оригинала : 2 ч. 10 м.
Вид битрейта : Переменный
Битрейт : 158 Кбит/сек
Максимальный битрейт : 347 Кбит/сек
Каналы : 2 канала
Расположение каналов : Front: L R
Частота : 44,1 КГц
Частота кадров : 43,066 кадра/сек (1024 SPF)
Метод сжатия : С потерями
Размер потока : 147 Мбайт (17%)
Размер потока оригинала : 147 Мбайт (17%)
Язык : English
Дата кодирования : UTC 2018-01-02 12:34:20
Дата пометки : UTC 2018-01-02 12:34:20
mdhd_Duration : 7826611

Дополнительная информация:

В раздаче имеются архивы! В них содержится дополнительные материалы.
Скриншоты:
Скачать .torrent

Для того, чтобы скачать торрент-файл

LoftSchool - Основы вёрстки (2017)

с нашего сайта, Вам необходимо Войти на сайт под своим логином! Если у Вас ещё нет логина, тогда Вам нужно сначала Зарегистрироваться!

Как скачивать? · Что такое торрент? · Рейтинг и ограничения

Показать сообщения:    
Ответить на тему

LoftSchool - Основы вёрстки (2017) скачать торрент (torrent), видеоуроки, тренинги, обучающее видео и видеокурсы

Текущее время: Сегодня 07:02

Часовой пояс: GMT + 4



Вы не можете начинать темы
Вы не можете отвечать на сообщения
Вы не можете редактировать свои сообщения
Вы не можете удалять свои сообщения
Вы не можете голосовать в опросах
Вы не можете прикреплять файлы к сообщениям
Вы не можете скачивать файлы