GeekUniversity - Первая четверть. Разработка Frontend-а интернет-магазина (2017)

Ответить на тему
 
Автор Сообщение

Yulya ®

GeekUniversity | Первая четверть. Разработка Frontend-а интернет-магазина (2017) PCRec [H.264]- Автор (режиссер): GeekUniversity
Жанр: Программирование, html, css, js
Описание:
За 3 месяца первой четверти студенты разработают frontend современного интернет-магазина с адаптивной версткой на технологиях HTML5, CSS3, LESS, Bootstrap, Javascript, Ajax, JQuery, Gulp.
Продолжительность: 76:21:46
Качество видео: PCRec
Видео: AVC/H.264, 1278-1920x720-1080, ~55-4236 Kbps
Аудио: AAC, 2 ch, 64-253 Kbps

Mediainfo:

Общее
Полное имя : \Как стать программистом\Урок 12. Специальности в сфере IT.mp4
Формат : MPEG-4
Профиль формата : Base Media / Version 2
Идентификатор кодека : mp42 (isom/mp42)
Размер файла : 8,68 Мбайт
Продолжительность : 6 м. 34 с.
Режим общего битрейта : Переменный
Общий поток : 184 Кбит/сек
Дата кодирования : UTC 2016-12-28 14:36:02
Дата пометки : UTC 2016-12-28 14:36:02
Видео
Идентификатор : 1
Формат : AVC
Формат/Информация : Advanced Video Codec
Профиль формата : Main@L3.1
Параметр CABAC формата : Да
Параметр RefFrames формата : 3 кадра
Идентификатор кодека : avc1
Идентификатор кодека/Информация : Advanced Video Coding
Продолжительность : 6 м. 34 с.
Битрейт : 55,9 Кбит/сек
Ширина : 1278 пикселей
Высота : 720 пикселей
Соотношение сторон : 16:9
Режим частоты кадров : Постоянный
Частота кадров : 30,000 кадров/сек
Стандарт вещания : NTSC
Цветовое пространство : YUV
Субдискретизация насыщенности : 4:2:0
Битовая глубина : 8 бит
Тип развёртки : Прогрессивная
Бит/(Пиксели*Кадры) : 0.002
Размер потока : 2,63 Мбайт (30%)
Язык : English
Дата кодирования : UTC 2016-12-28 14:36:02
Дата пометки : UTC 2016-12-28 14:36:02
Цветовой диапазон : Limited
Аудио
Идентификатор : 2
Формат : AAC
Формат/Информация : Advanced Audio Codec
Профиль формата : LC
Идентификатор кодека : 40
Продолжительность : 6 м. 34 с.
Вид битрейта : Переменный
Битрейт : 126 Кбит/сек
Максимальный битрейт : 171 Кбит/сек
Каналы : 2 канала
Расположение каналов : Front: L R
Частота : 44,1 КГц
Частота кадров : 43,066 кадра/сек (1024 SPF)
Метод сжатия : С потерями
Размер потока : 5,92 Мбайт (68%)
Язык : English
Дата кодирования : UTC 2016-12-28 14:36:02
Дата пометки : UTC 2016-12-28 14:36:02
Общее
Полное имя : \01 Базовый курс JavaScript\lesson-06\Урок-06.mp4
Формат : MPEG-4
Профиль формата : Base Media
Идентификатор кодека : isom (isom/iso2/avc1/mp41)
Размер файла : 355 Мбайт
Продолжительность : 2 ч. 16 м.
Общий поток : 362 Кбит/сек
Программа кодирования : Lavf54.29.104
Видео
Идентификатор : 1
Формат : AVC
Формат/Информация : Advanced Video Codec
Профиль формата : High@L3.1
Параметр CABAC формата : Да
Параметр RefFrames формата : 4 кадра
Идентификатор кодека : avc1
Идентификатор кодека/Информация : Advanced Video Coding
Продолжительность : 2 ч. 16 м.
Битрейт : 291 Кбит/сек
Номинальный битрейт : 384 Кбит/сек
Ширина : 1280 пикселей
Высота : 720 пикселей
Соотношение сторон : 16:9
Режим частоты кадров : Постоянный
Частота кадров : 20,000 кадров/сек
Цветовое пространство : YUV
Субдискретизация насыщенности : 4:2:0
Битовая глубина : 8 бит
Тип развёртки : Прогрессивная
Бит/(Пиксели*Кадры) : 0.016
Размер потока : 285 Мбайт (80%)
Библиотека кодирования : x264 core 132
Настройки программы : cabac=1 / ref=1 / deblock=1:0:0 / analyse=0x3:0x113 / me=hex / subme=2 / psy=1 / psy_rd=1.00:0.00 / mixed_ref=0 / me_range=16 / chroma_me=1 / trellis=0 / 8x8dct=1 / cqm=0 / deadzone=21,11 / fast_pskip=1 / chroma_qp_offset=0 / threads=4 / lookahead_threads=1 / sliced_threads=0 / nr=0 / decimate=1 / interlaced=0 / bluray_compat=0 / constrained_intra=0 / bframes=3 / b_pyramid=2 / b_adapt=1 / b_bias=0 / direct=1 / weightb=1 / open_gop=0 / weightp=1 / keyint=80 / keyint_min=8 / scenecut=40 / intra_refresh=0 / rc_lookahead=10 / rc=cbr / mbtree=1 / bitrate=384 / ratetol=1.0 / qcomp=0.60 / qpmin=0 / qpmax=69 / qpstep=4 / vbv_maxrate=384 / vbv_bufsize=512 / nal_hrd=none / ip_ratio=1.40 / aq=1:1.00
Аудио
Идентификатор : 2
Формат : AAC
Формат/Информация : Advanced Audio Codec
Профиль формата : LC
Идентификатор кодека : 40
Продолжительность : 2 ч. 16 м.
Вид битрейта : Постоянный
Битрейт : 64,0 Кбит/сек
Каналы : 2 канала
Расположение каналов : Front: L R
Частота : 44,1 КГц
Частота кадров : 43,066 кадра/сек (1024 SPF)
Метод сжатия : С потерями
Размер потока : 62,7 Мбайт (18%)
Default : Да
AlternateGroup/String : 1
Общее
Полное имя : \Как стать программистом\Урок 6.2 Правила эффективного резюме - бонус.mp4
Формат : MPEG-4
Профиль формата : Base Media / Version 2
Идентификатор кодека : mp42 (isom/mp42)
Размер файла : 31,9 Мбайт
Продолжительность : 7 м. 44 с.
Режим общего битрейта : Переменный
Общий поток : 576 Кбит/сек
Дата кодирования : UTC 2017-06-15 10:17:17
Дата пометки : UTC 2017-06-15 10:17:17
Видео
Идентификатор : 1
Формат : AVC
Формат/Информация : Advanced Video Codec
Профиль формата : High@L4
Параметр CABAC формата : Да
Параметр RefFrames формата : 4 кадра
Идентификатор кодека : avc1
Идентификатор кодека/Информация : Advanced Video Coding
Продолжительность : 7 м. 44 с.
Битрейт : 447 Кбит/сек
Ширина : 1364 пикселя
Высота : 768 пикселей
Соотношение сторон : 16:9
Режим частоты кадров : Постоянный
Частота кадров : 30,000 кадров/сек
Стандарт вещания : NTSC
Цветовое пространство : YUV
Субдискретизация насыщенности : 4:2:0
Битовая глубина : 8 бит
Тип развёртки : Прогрессивная
Бит/(Пиксели*Кадры) : 0.014
Размер потока : 24,8 Мбайт (78%)
Язык : English
Дата кодирования : UTC 2017-06-15 10:17:18
Дата пометки : UTC 2017-06-15 10:17:18
Цветовой диапазон : Limited
Основные цвета : BT.709
Характеристики трансфера : BT.709
Коэффициенты матрицы : BT.601
Аудио
Идентификатор : 2
Формат : AAC
Формат/Информация : Advanced Audio Codec
Профиль формата : LC
Идентификатор кодека : 40
Продолжительность : 7 м. 44 с.
Вид битрейта : Переменный
Битрейт : 126 Кбит/сек
Максимальный битрейт : 173 Кбит/сек
Каналы : 2 канала
Расположение каналов : Front: L R
Частота : 44,1 КГц
Частота кадров : 43,066 кадра/сек (1024 SPF)
Метод сжатия : С потерями
Размер потока : 6,95 Мбайт (22%)
Язык : English
Дата кодирования : UTC 2017-06-15 10:17:18
Дата пометки : UTC 2017-06-15 10:17:18
Общее
Полное имя : \Английский для IT-специалистов\Урок 01\intro.mp4
Формат : MPEG-4
Профиль формата : Base Media / Version 2
Идентификатор кодека : mp42 (mp42/isom)
Размер файла : 19,9 Мбайт
Продолжительность : 1 м. 7 с.
Общий поток : 2474 Кбит/сек
Дата кодирования : UTC 2016-12-11 14:47:17
Дата пометки : UTC 2016-12-11 14:47:17
Библиотека кодирования : AVS
Видео
Идентификатор : 1
Формат : AVC
Формат/Информация : Advanced Video Codec
Профиль формата : Baseline@L3.1
Параметр CABAC формата : Нет
Параметр RefFrames формата : 1 кадр
Идентификатор кодека : avc1
Идентификатор кодека/Информация : Advanced Video Coding
Продолжительность : 1 м. 7 с.
Битрейт : 2274 Кбит/сек
Ширина : 1920 пикселей
Высота : 1080 пикселей
Соотношение сторон : 16:9
Режим частоты кадров : Постоянный
Частота кадров : 30,000 кадров/сек
Цветовое пространство : YUV
Субдискретизация насыщенности : 4:2:0
Битовая глубина : 8 бит
Тип развёртки : Прогрессивная
Бит/(Пиксели*Кадры) : 0.037
Размер потока : 18,3 Мбайт (92%)
Язык : English
Дата кодирования : UTC 2016-12-11 14:47:17
Дата пометки : UTC 2016-12-11 14:47:17
Основные цвета : BT.709
Характеристики трансфера : BT.709
Коэффициенты матрицы : BT.709
Аудио
Идентификатор : 2
Формат : AAC
Формат/Информация : Advanced Audio Codec
Профиль формата : LC
Идентификатор кодека : 40
Продолжительность : 1 м. 7 с.
Вид битрейта : Постоянный
Битрейт : 192 Кбит/сек
Номинальный битрейт : 256 Кбит/сек
Каналы : 2 канала
Расположение каналов : Front: L R
Частота : 48,0 КГц
Частота кадров : 46,875 кадров/сек (1024 SPF)
Метод сжатия : С потерями
Размер потока : 1,55 Мбайт (8%)
Язык : English
Дата кодирования : UTC 2016-12-11 14:47:17
Дата пометки : UTC 2016-12-11 14:47:17
mdhd_Duration : 67413

Дополнительная информация:

В раздаче имеются архивы! В них содержится дополнительные материалы.

Программа обучения:

Профессиональная верстка:
HTML5 & CSS3
Адаптивная и кроссбраузерная верстка
Использование препроцессоров LESS & SASS
Использование и применение Bootstrap и flexbox
Базовый курс Javascript:
Переменные, типы данных, циклы, ветвления, функции
Инструменты разработки и отладка в браузере
Методы и объекты в JS
DOM
Продвинутый курс Javascript:
Объектно-ориентированная парадигма в JavaScript
JQuery
Ajax
Gulp, grunt
Компьютерные сети:
Работа web-сервера и протокол HTTP
Стек TCP/IP
Работа с сетевыми утилитами
Безопасность в компьютерных сетях
Как стать программистом?
Подготовка резюме
Как правильно проходить собеседования?
Скриншоты:
Скачать .torrent

Для того, чтобы скачать торрент-файл

GeekUniversity - Первая четверть. Разработка Frontend-а интернет-магазина (2017)

с нашего сайта, Вам необходимо Войти на сайт под своим логином! Если у Вас ещё нет логина, тогда Вам нужно сначала Зарегистрироваться!

Как скачивать? · Что такое торрент? · Рейтинг и ограничения

Показать сообщения:    
Ответить на тему

GeekUniversity - Первая четверть. Разработка Frontend-а интернет-магазина (2017) скачать торрент (torrent), видеоуроки, тренинги, обучающее видео и видеокурсы

Текущее время: Сегодня 14:00

Часовой пояс: GMT + 4



Вы не можете начинать темы
Вы не можете отвечать на сообщения
Вы не можете редактировать свои сообщения
Вы не можете удалять свои сообщения
Вы не можете голосовать в опросах
Вы не можете прикреплять файлы к сообщениям
Вы не можете скачивать файлы