Артём Исламов - Посадка вёрстки на wordpress (2018)

Ответить на тему
 
Автор Сообщение

Yulya ®

Артем Исламов | Посадка вёрстки на wordpress (2018) PCRec [H.264] - Автор (режиссер): Артем Исламов
Жанр: Программирование, wordpress, html, css
Описание:
Всем вам известна типичная ситуация, когда заказчик просит установить админку на сайт. Чаще всего для подобных задач подходит такой простой для работы движок как Wordpress. К сожалению, многие верстальщики не умеют работать с этой CMS, и поэтому мы решили запустить недельный мини-курс (интенсив), где всего за неделю разберемся с тем, как "натягивать" верстку на Wordpress, работая над настоящим заказом.
Продолжительность: 03:56:41
Качество видео: PCRec
Видео: AVC/H.264, 1280-1920x720-1080, ~233-1315 Kbps
Аудио: AAC, 2 ch, 125-256 Kbps

Mediainfo:

Общее
Полное имя : \День 0. Первая встреча\0 Первая встреча.mp4
Формат : MPEG-4
Профиль формата : Base Media / Version 2
Идентификатор кодека : mp42 (isom/mp42)
Размер файла : 150 Мбайт
Продолжительность : 45 м. 0 с.
Режим общего битрейта : Переменный
Общий поток : 465 Кбит/сек
Дата кодирования : UTC 2018-01-16 06:05:06
Дата пометки : UTC 2018-01-16 06:05:06
gsst : 0
gstd : 2700852
Видео
Идентификатор : 1
Формат : AVC
Формат/Информация : Advanced Video Codec
Профиль формата : Main@L3.1
Параметр CABAC формата : Да
Параметр RefFrames формата : 3 кадра
Идентификатор кодека : avc1
Идентификатор кодека/Информация : Advanced Video Coding
Продолжительность : 45 м. 0 с.
Битрейт : 336 Кбит/сек
Ширина : 1280 пикселей
Высота : 720 пикселей
Соотношение сторон : 16:9
Режим частоты кадров : Постоянный
Частота кадров : 30,000 кадров/сек
Цветовое пространство : YUV
Субдискретизация насыщенности : 4:2:0
Битовая глубина : 8 бит
Тип развёртки : Прогрессивная
Бит/(Пиксели*Кадры) : 0.012
Размер потока : 108 Мбайт (72%)
Заголовок : ISO Media file produced by Google Inc. Created on: 01/15/2018.
Дата кодирования : UTC 2018-01-16 06:05:06
Дата пометки : UTC 2018-01-16 06:05:06
Цветовой диапазон : Limited
Основные цвета : BT.709
Характеристики трансфера : BT.709
Коэффициенты матрицы : BT.709
Аудио
Идентификатор : 2
Формат : AAC
Формат/Информация : Advanced Audio Codec
Профиль формата : LC
Идентификатор кодека : 40
Продолжительность : 45 м. 0 с.
Вид битрейта : Переменный
Битрейт : 126 Кбит/сек
Каналы : 2 канала
Расположение каналов : Front: L R
Частота : 44,1 КГц
Частота кадров : 43,066 кадра/сек (1024 SPF)
Метод сжатия : С потерями
Размер потока : 40,4 Мбайт (27%)
Заголовок : ISO Media file produced by Google Inc. Created on: 01/15/2018.
Дата кодирования : UTC 2018-01-16 06:05:06
Дата пометки : UTC 2018-01-16 06:05:06
Общее
Полное имя : \День 1. Установка верстки на админку Wordpress\1.mp4
Формат : MPEG-4
Профиль формата : Base Media / Version 2
Идентификатор кодека : mp42 (mp42/mp41/isom/avc1)
Размер файла : 343 Мбайт
Продолжительность : 36 м. 49 с.
Режим общего битрейта : Переменный
Общий поток : 1303 Кбит/сек
Дата кодирования : UTC 2017-12-05 20:19:43
Дата пометки : UTC 2017-12-05 20:19:43
Видео
Идентификатор : 1
Формат : AVC
Формат/Информация : Advanced Video Codec
Профиль формата : High@L4
Параметр CABAC формата : Да
Параметр RefFrames формата : 4 кадра
Идентификатор кодека : avc1
Идентификатор кодека/Информация : Advanced Video Coding
Продолжительность : 36 м. 49 с.
Битрейт : 1042 Кбит/сек
Ширина : 1920 пикселей
Высота : 1080 пикселей
Соотношение сторон : 16:9
Режим частоты кадров : Постоянный
Частота кадров : 29,970 (30000/1001) кадров/сек
Цветовое пространство : YUV
Субдискретизация насыщенности : 4:2:0
Битовая глубина : 8 бит
Тип развёртки : Прогрессивная
Бит/(Пиксели*Кадры) : 0.017
Размер потока : 274 Мбайт (80%)
Библиотека кодирования : x264 core 152 r10 ba24899
Настройки программы : cabac=1 / ref=4 / deblock=1:0:0 / analyse=0x3:0x113 / me=hex / subme=8 / psy=1 / psy_rd=1.00:0.00 / mixed_ref=1 / me_range=16 / chroma_me=1 / trellis=2 / 8x8dct=1 / cqm=0 / deadzone=21,11 / fast_pskip=1 / chroma_qp_offset=-2 / threads=34 / lookahead_threads=5 / sliced_threads=0 / nr=0 / decimate=1 / interlaced=0 / bluray_compat=0 / stitchable=1 / constrained_intra=0 / bframes=3 / b_pyramid=2 / b_adapt=2 / b_bias=0 / direct=3 / weightb=1 / open_gop=0 / weightp=2 / keyint=infinite / keyint_min=29 / scenecut=40 / intra_refresh=0 / rc_lookahead=50 / rc=crf / mbtree=1 / crf=20.0 / qcomp=0.60 / qpmin=5 / qpmax=69 / qpstep=4 / vbv_maxrate=5500 / vbv_bufsize=15000 / crf_max=0.0 / nal_hrd=none / filler=0 / ip_ratio=1.40 / aq=1:1.00
Дата кодирования : UTC 2017-12-05 20:19:43
Дата пометки : UTC 2017-12-05 20:19:43
Цветовой диапазон : Limited
Основные цвета : BT.709
Характеристики трансфера : BT.709
Коэффициенты матрицы : BT.709
Аудио
Идентификатор : 2
Формат : AAC
Формат/Информация : Advanced Audio Codec
Профиль формата : LC
Идентификатор кодека : 40
Продолжительность : 36 м. 49 с.
Вид битрейта : Переменный
Битрейт : 256 Кбит/сек
Каналы : 2 канала
Расположение каналов : Front: L R
Частота : 48,0 КГц
Частота кадров : 46,875 кадров/сек (1024 SPF)
Метод сжатия : С потерями
Размер потока : 67,4 Мбайт (20%)
Дата кодирования : UTC 2017-12-05 20:19:43
Дата пометки : UTC 2017-12-05 20:19:43

Дополнительная информация:

В раздаче имеются архив! В нем содержится исходник верстки.

Программа интенсива:

ДЕНЬ 1
Установка и настройка Wordpress на локальном хостинге
Создание пустой темы под исходную верстку
Правильное подключение стилей и скриптов через functions.php
Перенос файлов статической верстки в тему
Правильные пути до изображений в теме
ДЕНЬ 2
Изменяемые поля на сайте
Добавляем поддержку пользовательского логотипа в теме
Выводим динамическое описание сайта в title
Настраиваем пользовательские поля для телефона, заголовка и т.д.
Пользовательское фоновое изображение на сайте
ДЕНЬ 3
Динамический вывод постов
Алгоритм действий
Создание рубрик для вывода записей
Динамическое выведение объектов внутри верстки
Добавляем кастомные поля объектам
Подключение превью для записей
Ставим заглушку, если у записи нет изображения
ДЕНЬ 4
Google Карты на сайте + Контактные формы
Настраиваем Google Карты на сайте
Использование google API key для плагина
Получение и выведение шорткодов карты внутри верстки
Подключение контактных форм через плагин
Выведение динамической AJAX формы на сайте
Кастомизация полей формы CSS
ДЕНЬ 5
Переносим сайт с локального хостинга на настоящий
Переносим архив с сайтом на хостинг
Извлекаем архив на хостинге
Создаем новую базу данных на хостинге
Делаем экспорт базы данных с локального хостинга
Импортируем полученный файл в базу на хостинге
Изменяем wp-config.php, забиваем туда новые доступы к БД
Меняем пути до сайта с localhost на текущий домен
Скриншоты:
Скачать .torrent

Для того, чтобы скачать торрент-файл

Артём Исламов - Посадка вёрстки на wordpress (2018)

с нашего сайта, Вам необходимо Войти на сайт под своим логином! Если у Вас ещё нет логина, тогда Вам нужно сначала Зарегистрироваться!

Как скачивать? · Что такое торрент? · Рейтинг и ограничения

Показать сообщения:    
Ответить на тему

Артём Исламов - Посадка вёрстки на wordpress (2018) скачать торрент (torrent), видеоуроки, тренинги, обучающее видео и видеокурсы

Текущее время: Сегодня 01:04

Часовой пояс: GMT + 4



Вы не можете начинать темы
Вы не можете отвечать на сообщения
Вы не можете редактировать свои сообщения
Вы не можете удалять свои сообщения
Вы не можете голосовать в опросах
Вы не можете прикреплять файлы к сообщениям
Вы не можете скачивать файлы