Нетология - UX-дизайнер: основы профессии и тренды (2018)

Ответить на тему
 
Автор Сообщение

Yulya ®

Нетология | UX-дизайнер: основы профессии и тренды (2018) PCRec - Автор (режиссер): Артём Рощупка
Производство: Нетология
Жанр: Видеокурс
Описание:
Технологии меняются с каждым днем, и пользователям теперь недостаточно просто красивой картинки на сайте или приложении. В первую очередь ваши клиенты начинают обращать внимание на удобство и полезность вашего сайта или сервиса. Сервис должен решать проблемы клиента.
То есть когда речь идет о больших и сложных сервисах или информационных системах, их внешний вид, то, что называется look-and-feel, отходит на второй план. Самым важным становится максимально быстрое выполнение пользователем целевого действия, например, покупка товара, если речь идет об интернет-магазине.
Таким образом разработка сайтов и мобильных приложений становится менее творческой, а профессия дизайнера интерфейсов напоминает работу инженера. Основной акцент смещается в сторону проектирования, поэтому клиенты, которые заказывают создание сервиса или приложения, в первую очередь обращают внимание на так называемый опыт взаимодействия – User Experience.
Продолжительность: 01:25:07
Качество видео: PCRec
Видео: AVC/H.264, 1280x720, ~~573 Kbps
Аудио: AAC, 2 ch, 235 Kbps

Mediainfo:

Общее
Полное имя : UX-дизайнер основы профессии и тренды\Видеозапись.mp4
Формат : MPEG-4
Профиль формата : Base Media / Version 2
Идентификатор кодека : mp42 (mp42/mp41/isom/avc1)
Размер файла : 494 Мбайт
Продолжительность : 1 ч. 25 м.
Режим общего битрейта : Переменный
Общий поток : 812 Кбит/сек
Дата кодирования : UTC 2018-01-18 19:03:33
Дата пометки : UTC 2018-01-18 19:03:33
Видео
Идентификатор : 1
Формат : AVC
Формат/Информация : Advanced Video Codec
Профиль формата : High@L3.2
Настройки формата : CABAC / 5 Ref Frames
Параметр CABAC формата : Да
Параметр RefFrames формата : 5 кадров
Идентификатор кодека : avc1
Идентификатор кодека/Информация : Advanced Video Coding
Продолжительность : 1 ч. 25 м.
Битрейт : 573 Кбит/сек
Ширина : 1280 пикселей
Высота : 720 пикселей
Соотношение сторон : 16:9
Режим частоты кадров : Постоянный
Частота кадров : 20,000 кадров/сек
Цветовое пространство : YUV
Субдискретизация насыщенности : 4:2:0
Битовая глубина : 8 бит
Тип развёртки : Прогрессивная
Бит/(Пиксели*Кадры) : 0.031
Размер потока : 349 Мбайт (71%)
Библиотека кодирования : x264 core 155 r10 b00bcaf
Настройки программы : cabac=1 / ref=5 / deblock=1:0:0 / analyse=0x3:0x113 / me=hex / subme=8 / psy=1 / psy_rd=1.00:0.00 / mixed_ref=1 / me_range=16 / chroma_me=1 / trellis=2 / 8x8dct=1 / cqm=0 / deadzone=21,11 / fast_pskip=1 / chroma_qp_offset=-2 / threads=22 / lookahead_threads=3 / sliced_threads=0 / nr=0 / decimate=1 / interlaced=0 / bluray_compat=0 / stitchable=1 / constrained_intra=0 / bframes=3 / b_pyramid=2 / b_adapt=2 / b_bias=0 / direct=3 / weightb=1 / open_gop=0 / weightp=2 / keyint=infinite / keyint_min=20 / scenecut=40 / intra_refresh=0 / rc_lookahead=50 / rc=crf / mbtree=1 / crf=20.0 / qcomp=0.60 / qpmin=5 / qpmax=69 / qpstep=4 / vbv_maxrate=2750 / vbv_bufsize=7500 / crf_max=0.0 / nal_hrd=none / filler=0 / ip_ratio=1.40 / aq=1:1.00
Дата кодирования : UTC 2018-01-18 19:03:33
Дата пометки : UTC 2018-01-18 19:03:33
Цветовой диапазон : Limited
Основные цвета : BT.709
Характеристики трансфера : BT.709
Коэффициенты матрицы : BT.709
Аудио
Идентификатор : 2
Формат : AAC
Формат/Информация : Advanced Audio Codec
Профиль формата : LC
Идентификатор кодека : mp4a-40-2
Продолжительность : 1 ч. 25 м.
Вид битрейта : Переменный
Битрейт : 235 Кбит/сек
Каналы : 2 канала
Расположение каналов : Front: L R
Частота : 48,0 КГц
Частота кадров : 46,875 кадров/сек (1024 SPF)
Метод сжатия : С потерями
Размер потока : 143 Мбайт (29%)
Дата кодирования : UTC 2018-01-18 19:03:33
Дата пометки : UTC 2018-01-18 19:03:33

Дополнительная информация:

ключевые определения UX-дизайна;
основные факторы влияющие на опыт взаимодействия;
интеграция UX-дизайна в процесс создания продукта.
Скриншоты:
Скачать .torrent

Для того, чтобы скачать торрент-файл

Нетология - UX-дизайнер: основы профессии и тренды (2018)

с нашего сайта, Вам необходимо Войти на сайт под своим логином! Если у Вас ещё нет логина, тогда Вам нужно сначала Зарегистрироваться!

Как скачивать? · Что такое торрент? · Рейтинг и ограничения

Показать сообщения:    
Ответить на тему

Нетология - UX-дизайнер: основы профессии и тренды (2018) скачать торрент (torrent), видеоуроки, тренинги, обучающее видео и видеокурсы

Текущее время: Сегодня 07:42

Часовой пояс: GMT + 4



Вы не можете начинать темы
Вы не можете отвечать на сообщения
Вы не можете редактировать свои сообщения
Вы не можете удалять свои сообщения
Вы не можете голосовать в опросах
Вы не можете прикреплять файлы к сообщениям
Вы не можете скачивать файлы