Ирина Колосова - Your english trainer. Интенсив курс для продолжающих. Уровень 4 (2017)

Ответить на тему
 
Автор Сообщение

Yulya ®

Ирина Колосова | Your english trainer. Интенсив курс для продолжающих. Уровень 4 (2017) PCRec [H.264/720p-LQ] - Автор (режиссер): Ирина Колосова
Жанр: Английский язык
Описание:
Этот курс специально продуман для тех, кто не может сдвинуться с "мертвой точки". Тщательно подобранный материал и продуманная методика заставит вашу память работать и поглощать информацию. Вы доведете все темы до автоматизма.
Эффективная методика, которая приносит результат в минимальный срок!
Продолжительность: 11:16:54
Качество видео: PCRec
Видео: AVC/H.264, 1280х720, ~384 Kbps
Аудио: AAC, 2 ch, 256 Kbps, VBR

Mediainfo:

Код:
General
Complete name                            : C:\Torrents\Ирина Колосова - Your english trainer (Level 4)\Lesson_01__Level_4.mp4
Format                                   : MPEG-4
Format profile                           : Base Media / Version 2
Codec ID                                 : mp42
File size                                : 169 MiB
Duration                                 : 36mn 39s
Overall bit rate mode                    : Variable
Overall bit rate                         : 645 Kbps
Encoded date                             : UTC 2017-02-11 19:15:12
Tagged date                              : UTC 2017-02-11 19:15:12
Video
ID                                       : 1
Format                                   : AVC
Format/Info                              : Advanced Video Codec
Format profile                           : High@L3.2
Format settings, CABAC                   : Yes
Format settings, ReFrames                : 5 frames
Format settings, GOP                     : M=4, N=90
Codec ID                                 : avc1
Codec ID/Info                            : Advanced Video Coding
Duration                                 : 36mn 39s
Bit rate                                 : 384 Kbps
Width                                    : 1 280 pixels
Height                                   : 720 pixels
Display aspect ratio                     : 16:9
Frame rate mode                          : Constant
Frame rate                               : 29.970 fps
Color space                              : YUV
Chroma subsampling                       : 4:2:0
Bit depth                                : 8 bits
Scan type                                : Progressive
Bits/(Pixel*Frame)                       : 0.014
Stream size                              : 101 MiB (60%)
Writing library                          : x264 core 148 r10 b97ae06
Encoding settings                        : cabac=1 / ref=5 / deblock=1:0:0 / analyse=0x3:0x113 / me=hex / subme=8 / psy=1 / psy_rd=1.00:0.00 / mixed_ref=1 / me_range=16 / chroma_me=1 / trellis=2 / 8x8dct=1 / cqm=0 / deadzone=21,11 / fast_pskip=1 / chroma_qp_offset=-2 / threads=22 / lookahead_threads=3 / sliced_threads=0 / nr=0 / decimate=1 / interlaced=0 / bluray_compat=0 / stitchable=1 / constrained_intra=0 / bframes=3 / b_pyramid=2 / b_adapt=1 / b_bias=0 / direct=3 / weightb=1 / open_gop=0 / weightp=2 / keyint=infinite / keyint_min=29 / scenecut=40 / intra_refresh=0 / rc_lookahead=50 / rc=crf / mbtree=1 / crf=20.0 / qcomp=0.60 / qpmin=5 / qpmax=69 / qpstep=4 / vbv_maxrate=2750 / vbv_bufsize=7500 / crf_max=0.0 / nal_hrd=none / filler=0 / ip_ratio=1.40 / aq=1:1.00
Encoded date                             : UTC 2017-02-11 19:15:12
Tagged date                              : UTC 2017-02-11 19:15:12
Color primaries                          : BT.709
Transfer characteristics                 : BT.709
Matrix coefficients                      : BT.709
Audio
ID                                       : 2
Format                                   : AAC
Format/Info                              : Advanced Audio Codec
Format profile                           : LC
Codec ID                                 : 40
Duration                                 : 36mn 39s
Bit rate mode                            : Variable
Bit rate                                 : 256 Kbps
Channel(s)                               : 2 channels
Channel positions                        : Front: L R
Sampling rate                            : 48.0 KHz
Compression mode                         : Lossy
Stream size                              : 67.1 MiB (40%)
Encoded date                             : UTC 2017-02-11 19:15:12
Tagged date                              : UTC 2017-02-11 19:15:12

Дополнительная информация:

1. Ежедневные занятия (всего 30 мин. в день) позволяют сознанию быстро адаптироваться к иностранному языку. Вы начнете поглощать информацию быстрее и намного лучше. Вы погружаетесь в незнакомую среду и ваша память будет работать эффективно.
2. Управление вниманием. Умение управлять своим вниманием и правильно его распределять - это залог успеха. Данный курс поможет вам концентрироваться на самых главных моментах. С помощью специальных техник и приемов ваше внимание будет приковано к ключевым моментам грамматики. Весь пройденный материал останется у вас в памяти навсегда.
3. Практика говорения. Вы начнете говорить уже с первого урока. Практика говорения запускается сразу. Подача материала в очень простой и наглядной форме, что позволяет сосредоточиться на разговорной речи.
4. Тренинг понимания на слух является ключевым этапом каждого урока. Благодаря правильно подобранному материалу вы научитесь различать и улавливать информацию разговорного, бытового языка.
5. Продуманная последовательность подачи материала от простого к сложному, шаг за шагом. Вся информация "разложится по полочкам" у вас в голове и останется с вами.
Скриншоты:
Скачать .torrent

Для того, чтобы скачать торрент-файл

Ирина Колосова - Your english trainer. Интенсив курс для продолжающих. Уровень 4 (2017)

с нашего сайта, Вам необходимо Войти на сайт под своим логином! Если у Вас ещё нет логина, тогда Вам нужно сначала Зарегистрироваться!

Как скачивать? · Что такое торрент? · Рейтинг и ограничения

Показать сообщения:    
Ответить на тему

Ирина Колосова - Your english trainer. Интенсив курс для продолжающих. Уровень 4 (2017) скачать торрент (torrent), видеоуроки, тренинги, обучающее видео и видеокурсы

Текущее время: Сегодня 04:52

Часовой пояс: GMT + 4



Вы не можете начинать темы
Вы не можете отвечать на сообщения
Вы не можете редактировать свои сообщения
Вы не можете удалять свои сообщения
Вы не можете голосовать в опросах
Вы не можете прикреплять файлы к сообщениям
Вы не можете скачивать файлы