Lynda.com - SketchUp 2017 Essential Training (2016)

Ответить на тему
 
Автор Сообщение

Yulya ®

Lynda.com | SketchUp 2017 Essential Training (2016) PCRec [H.264/720p-LQ] - Автор (режиссер): George Maestri
Производство: Lynda.com
Жанр: 3D графика
Описание:
Базовый курс SketchUp 2017
SketchUp – это бесплатная в одной из версий и простая в использовании программа 3D-графики, дизайна и рендеринга. SketchUp 2017 обеспечивает большую производительность, более интеллектуальные инструменты, такие, как логические механизмы интерфейса, а также больше возможностей настройки, чем когда-либо прежде.
Данный учебный курс будет полезен студентам и школьникам, которые хотят изучить основы 3D-графики за короткое время.
Продолжительность: 03:48:33
Качество видео: PCRec
Перевод: Дублированный, AlexJP
Язык озвучки: Русский, Английский
Видео: AVC/H.264, 1280x720, ~75-1075 Kbps
Аудио 1: AAC, 1 ch, 128 Kbps - Русский, дублированный (AlexJP)
Аудио 2: AAC, 2 ch, 128 Kbps - Английский, оригинал

Mediainfo:

General
Complete name : 01_01. Interface basics for Windows.mp4
Format : MPEG-4
Format profile : Base Media
Codec ID : isom
File size : 13.1 MiB
Duration : 4mn 18s
Overall bit rate mode : Variable
Overall bit rate : 425 Kbps
Video
ID : 1
Format : AVC
Format/Info : Advanced Video Codec
Format profile : Main@L3.1
Format settings, CABAC : Yes
Format settings, ReFrames : 5 frames
Codec ID : avc1
Codec ID/Info : Advanced Video Coding
Duration : 4mn 18s
Bit rate mode : Variable
Bit rate : 159 Kbps
Maximum bit rate : 1 000 Kbps
Width : 1 280 pixels
Height : 720 pixels
Display aspect ratio : 16:9
Frame rate mode : Constant
Frame rate : 30.000 fps
Color space : YUV
Chroma subsampling : 4:2:0
Bit depth : 8 bits
Scan type : Progressive
Bits/(Pixel*Frame) : 0.006
Stream size : 4.88 MiB (37%)
Writing library : x264 core 129
Language : English
Audio #1
ID : 2
Format : AAC
Format/Info : Advanced Audio Codec
Format profile : LC
Codec ID : 40
Duration : 4mn 18s
Duration_LastFrame : 43ms
Bit rate mode : Constant
Bit rate : 128 Kbps
Channel(s) : 2 channels
Channel(s)_Original : 1 channel
Channel positions : Front: C
Sampling rate : 44.1 KHz
Compression mode : Lossy
Stream size : 3.94 MiB (30%)
Language : Russian
Audio #2
ID : 3
Format : AAC
Format/Info : Advanced Audio Codec
Format profile : LC
Codec ID : 40
Duration : 4mn 18s
Bit rate mode : Constant
Bit rate : 128 Kbps
Channel(s) : 2 channels
Channel positions : Front: L R
Sampling rate : 48.0 KHz
Compression mode : Lossy
Stream size : 3.94 MiB (30%)
Language : English

Дополнительная информация:

Джордж Маэстри, автор курса, охватывает в нём навигацию по интерфейсу, управление объектами, рисование в 2D и 3D пространствах, работу с материалами и наложение текстур, импорт и экспорт объектов в другие программы (такие, как например Autodesk 3ds Max). Кроме того, вы научитесь работать с компонентами (в том числе сторонними 3D-объектами с интернет-склада моделей 3DWarehouse), а также применять простые стили и анимацию, чтобы сделать ваши 3D-проекты более презентабельными.
Примечание: ключевые функции программы SketchUp Make (бесплатной версии SketchUp, рассмотренной в этом курсе) и SketchUp Pro (платной версии программы) идентичны. Этот курс подходит для пользователей обеих версий.
Файлы упражнений прилагаются к курсу.
Дополнительная информация на офсайте.
Как выбрать звуковую дорожку по умолчанию (ссылка).
Скриншоты:

Дополнительные скриншоты:

Скачать .torrent

Для того, чтобы скачать торрент-файл

Lynda.com - SketchUp 2017 Essential Training (2016)

с нашего сайта, Вам необходимо Войти на сайт под своим логином! Если у Вас ещё нет логина, тогда Вам нужно сначала Зарегистрироваться!

Как скачивать? · Что такое торрент? · Рейтинг и ограничения

Показать сообщения:    
Ответить на тему

Lynda.com - SketchUp 2017 Essential Training (2016) скачать торрент (torrent), видеоуроки, тренинги, обучающее видео и видеокурсы

Текущее время: Сегодня 07:38

Часовой пояс: GMT + 4



Вы не можете начинать темы
Вы не можете отвечать на сообщения
Вы не можете редактировать свои сообщения
Вы не можете удалять свои сообщения
Вы не можете голосовать в опросах
Вы не можете прикреплять файлы к сообщениям
Вы не можете скачивать файлы