Лена Смирнова - Почему нет клиентов? 7 способов это исправить. (2017)

Ответить на тему
 
Автор Сообщение

Yulya ®

Лена Смирнова | Почему нет клиентов? 7 способов это исправить. Вебинар (2017) PCRec [H.264/720p-LQ] - Автор (режиссер): Лена Смирнова
Производство: Лена Смирнова
Жанр: Обучающее видео
Описание:
Работа фрилансера - это большой риск и острая боязнь остаться без средств к существованию в следующем месяце, периоде, году.
Перед каждым из нас так или иначе вставал вопрос - почему у меня нет клиентов? Почему их мало? Почему они не готовы платить более высокую цену?
На эти и многие другие подобные вопросы Лена Смирнова ответит в рамках вебинара 2 февраля в 21.00
Это будет 2ух-часовой коучинг, в течение которого она системно представит 7 способов, выводов, основанных на её личном опыте, которые работают вот уже более 8 лет и будут работать и дальше.
А самое главное - вы узнаете, что нужно сделать, чтобы не ВЫ искали клиента, а ОН искал вас.
Продолжительность: 03:06:08
Качество видео: PCRec
Видео: AVC/H.264, 1280x720, ~2 090 Kbps
Аудио: AAC, 2 ch, 82.7 Kbps

Mediainfo:

General
Complete name : D:\photo\Почему нет клиентов. 7 способов это исправить! (Лена Смирнова)\Почему нет клиентов. 7 способов это исправить..mp4
Format : MPEG-4
Format profile : Base Media
Codec ID : isom (isom/iso2/avc1/mp41)
File size : 2.84 GiB
Duration : 3 h 6 min
Overall bit rate mode : Variable
Overall bit rate : 2 180 kb/s
Writing application : Lavf56.25.101
Video
ID : 1
Format : AVC
Format/Info : Advanced Video Codec
Format profile : High@L3.1
Format settings, CABAC : Yes
Format settings, RefFrames : 4 frames
Format settings, GOP : M=4, N=25
Codec ID : avc1
Codec ID/Info : Advanced Video Coding
Duration : 3 h 6 min
Bit rate : 2 090 kb/s
Nominal bit rate : 1 980 kb/s
Width : 1 280 pixels
Height : 720 pixels
Display aspect ratio : 16:9
Frame rate mode : Constant
Frame rate : 25.000 FPS
Color space : YUV
Chroma subsampling : 4:2:0
Bit depth : 8 bits
Scan type : Progressive
Bits/(Pixel*Frame) : 0.091
Stream size : 2.72 GiB (96%)
Writing library : x264 core 142
Encoding settings : cabac=1 / ref=3 / deblock=1:0:0 / analyse=0x3:0x113 / me=hex / subme=7 / psy=1 / psy_rd=1.00:0.00 / mixed_ref=1 / me_range=16 / chroma_me=1 / trellis=1 / 8x8dct=1 / cqm=0 / deadzone=21,11 / fast_pskip=1 / chroma_qp_offset=-2 / threads=6 / lookahead_threads=1 / sliced_threads=0 / nr=0 / decimate=1 / interlaced=0 / bluray_compat=0 / constrained_intra=0 / bframes=3 / b_pyramid=2 / b_adapt=1 / b_bias=0 / direct=1 / weightb=1 / open_gop=0 / weightp=2 / keyint=25 / keyint_min=2 / scenecut=40 / intra_refresh=0 / rc_lookahead=25 / rc=2pass / mbtree=1 / bitrate=1980 / ratetol=1.0 / qcomp=0.60 / qpmin=0 / qpmax=69 / qpstep=4 / cplxblur=20.0 / qblur=0.5 / ip_ratio=1.40 / aq=1:1.00
Audio
ID : 2
Format : AAC
Format/Info : Advanced Audio Codec
Format profile : LC
Codec ID : 40
Duration : 3 h 6 min
Bit rate mode : Variable
Bit rate : 82.7 kb/s
Maximum bit rate : 192 kb/s
Channel(s) : 2 channels
Channel positions : Front: L R
Sampling rate : 44.1 kHz
Frame rate : 43.066 FPS (1024 SPF)
Compression mode : Lossy
Stream size : 110 MiB (4%)
Default : Yes
Alternate group : 1
Скриншоты:
Скачать .torrent

Для того, чтобы скачать торрент-файл

Лена Смирнова - Почему нет клиентов? 7 способов это исправить. (2017)

с нашего сайта, Вам необходимо Войти на сайт под своим логином! Если у Вас ещё нет логина, тогда Вам нужно сначала Зарегистрироваться!

Как скачивать? · Что такое торрент? · Рейтинг и ограничения

Показать сообщения:    
Ответить на тему

Лена Смирнова - Почему нет клиентов? 7 способов это исправить. (2017) скачать торрент (torrent), видеоуроки, тренинги, обучающее видео и видеокурсы

Текущее время: Сегодня 14:18

Часовой пояс: GMT + 4



Вы не можете начинать темы
Вы не можете отвечать на сообщения
Вы не можете редактировать свои сообщения
Вы не можете удалять свои сообщения
Вы не можете голосовать в опросах
Вы не можете прикреплять файлы к сообщениям
Вы не можете скачивать файлы