Лена Смирнова - Секреты успеха свадебного фотографа (2017)

Ответить на тему
 
Автор Сообщение

Yulya ®

Лена Смирнова | Секреты успеха свадебного фотографа. Вебинар (2017) PCRec [H.264] - Автор (режиссер): Лена Смирнова
Производство: Лена Смирнова
Жанр: Обучающее видео
Описание:
Свадебный фотограф: как сделать свой продукт максимально востребованным, а кандидатуру на рынке свадебной фотографии заметной.
Продолжительность: 04:11:02
Качество видео: PCRec
Видео: AVC/H.264, 854x480, ~880 Kbps
Аудио: AAC, 2 ch, 128 Kbps

Mediainfo:

General
Complete name : D:\photo\Секреты успеха свадебного фотографа (Лена Смирнова)\Секреты успеха свадебного фотографа.mp4
Format : MPEG-4
Format profile : Base Media
Codec ID : isom (isom/iso2/avc1/mp41)
File size : 1.78 GiB
Duration : 4 h 11 min
Overall bit rate mode : Variable
Overall bit rate : 1 014 kb/s
Writing application : Lavf56.25.101
Video
ID : 1
Format : AVC
Format/Info : Advanced Video Codec
Format profile : Baseline@L3
Format settings, CABAC : No
Format settings, RefFrames : 3 frames
Format settings, GOP : M=1, N=25
Codec ID : avc1
Codec ID/Info : Advanced Video Coding
Duration : 4 h 11 min
Bit rate : 880 kb/s
Width : 854 pixels
Height : 480 pixels
Display aspect ratio : 16:9
Original display aspect ratio : 16:9
Frame rate mode : Constant
Frame rate : 25.000 FPS
Color space : YUV
Chroma subsampling : 4:2:0
Bit depth : 8 bits
Scan type : Progressive
Bits/(Pixel*Frame) : 0.086
Stream size : 1.54 GiB (87%)
Writing library : x264 core 142
Encoding settings : cabac=0 / ref=3 / deblock=1:0:0 / analyse=0x1:0x111 / me=hex / subme=7 / psy=1 / psy_rd=1.00:0.00 / mixed_ref=1 / me_range=16 / chroma_me=1 / trellis=1 / 8x8dct=0 / cqm=0 / deadzone=21,11 / fast_pskip=1 / chroma_qp_offset=-2 / threads=6 / lookahead_threads=1 / sliced_threads=0 / nr=0 / decimate=1 / interlaced=0 / bluray_compat=0 / constrained_intra=0 / bframes=0 / weightp=0 / keyint=250 / keyint_min=25 / scenecut=40 / intra_refresh=0 / rc_lookahead=40 / rc=2pass / mbtree=1 / bitrate=880 / ratetol=1.0 / qcomp=0.60 / qpmin=0 / qpmax=69 / qpstep=4 / cplxblur=20.0 / qblur=0.5 / ip_ratio=1.40 / aq=1:1.00
Audio
ID : 2
Format : AAC
Format/Info : Advanced Audio Codec
Format profile : LC
Codec ID : 40
Duration : 4 h 11 min
Bit rate mode : Variable
Bit rate : 128 kb/s
Maximum bit rate : 160 kb/s
Channel(s) : 2 channels
Channel positions : Front: L R
Sampling rate : 44.1 kHz
Frame rate : 43.066 FPS (1024 SPF)
Compression mode : Lossy
Stream size : 230 MiB (13%)
Default : Yes
Alternate group : 1

Дополнительная информация:

В этом вебинаре я рассмотрю все "боли" свадебного фотографа и особенности работы в Event-индустрии:
- по каким критериям клиент выбирает свадебного фотографа, как максимально соответствовать этим критериям;
- как подписать договор на первой же встрече;
- как в начале года расписать большую часть сезона;
- почему одни свадебные фотографы каждый год повышают стоимость и количество минимальных часов работы, а другие жалуются на уменьшение количества заказов и "проседания рынка".
Я расскажу, как попасть в первую категорию.
Скриншоты:
Скачать .torrent

Для того, чтобы скачать торрент-файл

Лена Смирнова - Секреты успеха свадебного фотографа (2017)

с нашего сайта, Вам необходимо Войти на сайт под своим логином! Если у Вас ещё нет логина, тогда Вам нужно сначала Зарегистрироваться!

Как скачивать? · Что такое торрент? · Рейтинг и ограничения

Показать сообщения:    
Ответить на тему

Лена Смирнова - Секреты успеха свадебного фотографа (2017) скачать торрент (torrent), видеоуроки, тренинги, обучающее видео и видеокурсы

Текущее время: Сегодня 07:31

Часовой пояс: GMT + 4



Вы не можете начинать темы
Вы не можете отвечать на сообщения
Вы не можете редактировать свои сообщения
Вы не можете удалять свои сообщения
Вы не можете голосовать в опросах
Вы не можете прикреплять файлы к сообщениям
Вы не можете скачивать файлы