Борис Бублик - Случайные Видео Агроинженера (2005-2015)

Ответить на тему
 
Автор Сообщение

Yulya ®

Борис Бублик | Случайные Видео Агроинженера (2005-2015) CamRip [H.264]- Автор: Борис Андреевич Бублик
Жанр: Агротехника
Описание:
Случайные Видео Агроинженера Бориса Андреевича Бублика
Неожиданные решения в области агротехники!
Проверено практикой!
Продолжительность: 09:00:00
Качество видео: CamRip
Видео: AVC/H.264, 480-640x360, ~250-1200 kbps
Аудио: AAC, 1 ch, 96 kbps

Mediainfo:

Имя файла: Агрошкола 'Борис Бублик' 3 часть.mp4
Формат : MPEG-4
Профиль формата : Base Media / Version 2
Идентификатор кодека : mp42 (isom/mp42)
Размер файла : 51,2 Мбайт
Продолжительность : 19 м. 6 с.
Режим общего битрейта : Переменный
Общий поток : 374 Кбит/сек
Дата кодирования : UTC 2014-03-02 16:33:26
Дата пометки : UTC 2014-03-02 16:33:26
gsst : 0
gstd : 1146925
gssd : B4A7DAD07HH1401021764087432
gshh : r21---sn-axq7en7e.googlevideo.com
Видео
Идентификатор : 1
Формат : AVC
Формат/Информация : Advanced Video Codec
Профиль формата : Baseline@L2.1
Настройки формата : 1 Ref Frames
Параметр CABAC формата : Нет
Параметр RefFrames формата : 1 кадр
Параметр GOP формата : M=1, N=60
Идентификатор кодека : avc1
Идентификатор кодека/Информация : Advanced Video Coding
Продолжительность : 19 м. 6 с.
Битрейт : 276 Кбит/сек
Максимальный битрейт : 1197 Кбит/сек
Ширина : 480 пикселей
Высота : 360 пикселей
Соотношение сторон : 4:3
Режим частоты кадров : Постоянный
Частота кадров : 25,000 кадров/сек
Цветовое пространство : YUV
Субдискретизация насыщенности : 4:2:0
Битовая глубина : 8 бит
Тип развёртки : Прогрессивная
Бит/(Пиксели*Кадры) : 0.064
Размер потока : 37,7 Мбайт (74%)
Дата пометки : UTC 2014-03-02 16:33:32
Аудио
Идентификатор : 2
Формат : AAC
Формат/Информация : Advanced Audio Codec
Профиль формата : LC
Идентификатор кодека : mp4a-40-2
Продолжительность : 19 м. 6 с.
Вид битрейта : Переменный
Битрейт : 96,0 Кбит/сек
Максимальный битрейт : 105 Кбит/сек
Каналы : 2 канала
Расположение каналов : Front: L R
Частота : 44,1 КГц
Частота кадров : 43,066 кадра/сек (1024 SPF)
Метод сжатия : С потерями
Размер потока : 13,1 Мбайт (26%)
Заголовок : IsoMedia File Produced by Google, 5-11-2011
Дата кодирования : UTC 2014-03-02 16:33:29
Дата пометки : UTC 2014-03-02 16:33:32
Скриншоты:

ещё скриншоты

Скачать .torrent

Для того, чтобы скачать торрент-файл

Борис Бублик - Случайные Видео Агроинженера (2005-2015)

с нашего сайта, Вам необходимо Войти на сайт под своим логином! Если у Вас ещё нет логина, тогда Вам нужно сначала Зарегистрироваться!

Как скачивать? · Что такое торрент? · Рейтинг и ограничения

Показать сообщения:    
Ответить на тему

Борис Бублик - Случайные Видео Агроинженера (2005-2015) скачать торрент (torrent), видеоуроки, тренинги, обучающее видео и видеокурсы

Текущее время: Сегодня 05:53

Часовой пояс: GMT + 4



Вы не можете начинать темы
Вы не можете отвечать на сообщения
Вы не можете редактировать свои сообщения
Вы не можете удалять свои сообщения
Вы не можете голосовать в опросах
Вы не можете прикреплять файлы к сообщениям
Вы не можете скачивать файлы