Digital-Tutors - Introduction to Houdini 15 (2015)

Ответить на тему
 
Автор Сообщение

Yulya ®

Digital-Tutors | Introduction to Houdini 15 (2015) PCRec [H.264/720p-LQ] - Автор (режиссер): John Moncrief
Производство: Digital-Tutors
Жанр: 3D графика
Описание:
Введение в программу Houdini 15
Эта серия уроков по 15-ой версии Houdini поможет вам быстро получить базовые знания в этом пакете.
Больше всего пользы из этого курса получат абсолютные новички в Houdini, имеющие, однако, хорошее знание общей концепции работы в 3D. Мы начнём с самых азов и изучим многое, чтобы создать классную, эффектную сцену.
Вы изучите множество сильнейших аспектов этой основанной на нодах программы, освоите интерфейс, научитесь редактировать геометрию и использовать полигональное моделирование. Мы также узнаем, как импортировать геометрию, создавать свои интерфейсы, применять материалы и настраивать UV-мэппинг.
Мы разберем каждый шаг пайплайна, включая моделинг, анимацию, динамику, освещение и рендеринг, чтобы создать выразительную сцену, использующую динамику твердых тел и разбиение геометрии. После окончания этого курса вы сможете с уверенностью осваивать другие уроки по Houdini как от Digital Tutors, так и от других производителей.
Продолжительность: 07:28:51
Качество видео: PCRec
Перевод: Дублированный, Rastarokot
Видео: AVC/H.264, 1280х720, ~298 Kbps
Аудио: AAC, 1 ch, 128 Kbps

Mediainfo:

General
Complete name : 01. Introduction and Project Overview.mp4
Format : MPEG-4
Format profile : Base Media
Codec ID : isom
File size : 4.69 MiB
Duration : 1mn 31s
Overall bit rate : 430 Kbps
Video
ID : 1
Format : AVC
Format/Info : Advanced Video Codec
Format profile : Main@L3.1
Format settings, CABAC : Yes
Format settings, ReFrames : 4 frames
Codec ID : avc1
Codec ID/Info : Advanced Video Coding
Duration : 1mn 31s
Bit rate : 298 Kbps
Width : 1 280 pixels
Height : 720 pixels
Display aspect ratio : 16:9
Frame rate mode : Constant
Frame rate : 15.000 fps
Color space : YUV
Chroma subsampling : 4:2:0
Bit depth : 8 bits
Scan type : Progressive
Bits/(Pixel*Frame) : 0.022
Stream size : 3.25 MiB (69%)
Writing library : x264 core 144 r2525 40bb568
Language : English
Audio
ID : 2
Format : AAC
Format/Info : Advanced Audio Codec
Format profile : LC
Codec ID : 40
Duration : 1mn 31s
Duration_LastFrame : 36ms
Bit rate mode : Constant
Bit rate : 128 Kbps
Channel(s) : 2 channels
Channel(s)_Original : 1 channel
Channel positions : Front: C
Sampling rate : 44.1 KHz
Compression mode : Lossy
Stream size : 1.39 MiB (30%)
Language : Russian

Дополнительная информация:

Файлы упражнений прилагаются к курсу.
Дополнительная информация на официальном сайте (новая ссылка, оригинальная ссылка).
Скриншоты:

Дополнительные скриншоты:

Скачать .torrent

Для того, чтобы скачать торрент-файл

Digital-Tutors - Introduction to Houdini 15 (2015)

с нашего сайта, Вам необходимо Войти на сайт под своим логином! Если у Вас ещё нет логина, тогда Вам нужно сначала Зарегистрироваться!

Как скачивать? · Что такое торрент? · Рейтинг и ограничения

Показать сообщения:    
Ответить на тему

Digital-Tutors - Introduction to Houdini 15 (2015) скачать торрент (torrent), видеоуроки, тренинги, обучающее видео и видеокурсы

Текущее время: Сегодня 23:57

Часовой пояс: GMT + 4



Вы не можете начинать темы
Вы не можете отвечать на сообщения
Вы не можете редактировать свои сообщения
Вы не можете удалять свои сообщения
Вы не можете голосовать в опросах
Вы не можете прикреплять файлы к сообщениям
Вы не можете скачивать файлы