Виктор Зинченко - PHP UP (2017)

Ответить на тему
 
Автор Сообщение

Yulya ®

Виктор Зинченко | PHP UP (2017) PCRec - Автор (режиссер): Виктор Зинченко
Жанр: Программирование, PHP, YII2
Описание:
Цель курса PHP UP — обучить Вас современным инструментам и лучшим практикам, создать сложный работающий проект. Не менее важно — дать большое количество актуальной информации для того, чтоб Вы посмотрели на веб-программирование в целом и достигли глубокого понимания процесса разработки.
Продолжительность: 22:25:44
Качество видео: PCRec
Видео: ДРУГОЙ, 1280-1920x900-1800, 121-6371 Kbps
Аудио: ДРУГОЙ, 2 ch, 48-317 Kbps

Mediainfo:

Общее
Полное имя : \[PHP UP] Продвинутый курс программирования (YII2)\01 Новейшая инфраструктура в сфере веб-разработки\Урок №7 Менеджер зависимостей Composer часть 2\2.mp4
Формат : MPEG-4
Профиль формата : Base Media
Идентификатор кодека : isom (isom/iso2/avc1/mp41)
Размер файла : 173 Мбайт
Продолжительность : 35 м. 34 с.
Режим общего битрейта : Переменный
Общий поток : 681 Кбит/сек
Дата кодирования : UTC 2017-04-30 12:39:19
Дата пометки : UTC 2017-04-30 12:39:19
Программа кодирования : Lavf57.71.100
Видео
Идентификатор : 1
Формат : AVC
Формат/Информация : Advanced Video Codec
Профиль формата : Main@L3.2
Параметр CABAC формата : Да
Параметр RefFrames формата : 2 кадра
Параметр GOP формата : M=1, N=25
Идентификатор кодека : avc1
Идентификатор кодека/Информация : Advanced Video Coding
Продолжительность : 35 м. 34 с.
Битрейт : 504 Кбит/сек
Ширина : 1280 пикселей
Высота : 1024 пикселя
Соотношение сторон : 5:4
Режим частоты кадров : Постоянный
Частота кадров : 25,000 кадров/сек
Цветовое пространство : YUV
Субдискретизация насыщенности : 4:2:0
Битовая глубина : 8 бит
Тип развёртки : Прогрессивная
Бит/(Пиксели*Кадры) : 0.015
Размер потока : 128 Мбайт (74%)
Язык : English
Дата кодирования : UTC 2017-04-30 12:39:19
Дата пометки : UTC 2017-04-30 12:39:19
Аудио
Идентификатор : 2
Формат : AAC
Формат/Информация : Advanced Audio Codec
Профиль формата : LC
Идентификатор кодека : 40
Продолжительность : 35 м. 34 с.
Вид битрейта : Переменный
Битрейт : 173 Кбит/сек
Максимальный битрейт : 192 Кбит/сек
Каналы : 2 канала
Расположение каналов : Front: L R
Частота : 48,0 КГц
Частота кадров : 46,875 кадров/сек (1024 SPF)
Метод сжатия : С потерями
Размер потока : 43,9 Мбайт (25%)
Язык : English
Default : Да
AlternateGroup/String : 1
Дата кодирования : UTC 2017-04-30 12:39:19
Дата пометки : UTC 2017-04-30 12:39:19
Общее
Полное имя : \[PHP UP] Продвинутый курс программирования (YII2)\01 Новейшая инфраструктура в сфере веб-разработки\Урок №1 Настройка рабочего окружения\1.mp4
Формат : MPEG-4
Профиль формата : Base Media
Идентификатор кодека : isom (isom/iso2/avc1/mp41)
Размер файла : 11,4 Мбайт
Продолжительность : 2 м. 22 с.
Режим общего битрейта : Переменный
Общий поток : 672 Кбит/сек
Дата кодирования : UTC 2017-03-02 20:41:09
Дата пометки : UTC 2017-03-02 20:41:09
Программа кодирования : Lavf57.71.100
Видео
Идентификатор : 1
Формат : AVC
Формат/Информация : Advanced Video Codec
Профиль формата : Main@L4
Параметр CABAC формата : Да
Параметр RefFrames формата : 2 кадра
Параметр GOP формата : M=1, N=25
Идентификатор кодека : avc1
Идентификатор кодека/Информация : Advanced Video Coding
Продолжительность : 2 м. 22 с.
Битрейт : 493 Кбит/сек
Ширина : 1600 пикселей
Высота : 900 пикселей
Соотношение сторон : 16:9
Режим частоты кадров : Постоянный
Частота кадров : 10,000 кадров/сек
Цветовое пространство : YUV
Субдискретизация насыщенности : 4:2:0
Битовая глубина : 8 бит
Тип развёртки : Прогрессивная
Бит/(Пиксели*Кадры) : 0.034
Размер потока : 8,38 Мбайт (73%)
Язык : English
Дата кодирования : UTC 2017-03-02 20:41:09
Дата пометки : UTC 2017-03-02 20:41:09
Аудио
Идентификатор : 2
Формат : AAC
Формат/Информация : Advanced Audio Codec
Профиль формата : LC
Идентификатор кодека : 40
Продолжительность : 2 м. 22 с.
Вид битрейта : Переменный
Битрейт : 176 Кбит/сек
Максимальный битрейт : 192 Кбит/сек
Каналы : 2 канала
Расположение каналов : Front: L R
Частота : 48,0 КГц
Частота кадров : 46,875 кадров/сек (1024 SPF)
Метод сжатия : С потерями
Размер потока : 2,99 Мбайт (26%)
Язык : English
Default : Да
AlternateGroup/String : 1
Дата кодирования : UTC 2017-03-02 20:41:09
Дата пометки : UTC 2017-03-02 20:41:09
Общее
Полное имя : \[PHP UP] Продвинутый курс программирования (YII2)\01 Новейшая инфраструктура в сфере веб-разработки\Урок №1 Настройка рабочего окружения\2.mp4
Формат : MPEG-4
Профиль формата : Base Media
Идентификатор кодека : isom (isom/iso2/avc1/mp41)
Размер файла : 75,0 Мбайт
Продолжительность : 16 м. 13 с.
Режим общего битрейта : Переменный
Общий поток : 647 Кбит/сек
Дата кодирования : UTC 2017-03-03 07:46:32
Дата пометки : UTC 2017-03-03 07:46:32
Программа кодирования : Lavf57.71.100
Видео
Идентификатор : 1
Формат : AVC
Формат/Информация : Advanced Video Codec
Профиль формата : Main@L4
Параметр CABAC формата : Да
Параметр RefFrames формата : 2 кадра
Идентификатор кодека : avc1
Идентификатор кодека/Информация : Advanced Video Coding
Продолжительность : 16 м. 13 с.
Битрейт : 466 Кбит/сек
Ширина : 1920 пикселей
Высота : 1080 пикселей
Соотношение сторон : 16:9
Режим частоты кадров : Постоянный
Частота кадров : 10,000 кадров/сек
Цветовое пространство : YUV
Субдискретизация насыщенности : 4:2:0
Битовая глубина : 8 бит
Тип развёртки : Прогрессивная
Бит/(Пиксели*Кадры) : 0.022
Размер потока : 54,0 Мбайт (72%)
Язык : English
Дата кодирования : UTC 2017-03-03 07:46:32
Дата пометки : UTC 2017-03-03 07:46:32
Аудио
Идентификатор : 2
Формат : AAC
Формат/Информация : Advanced Audio Codec
Профиль формата : LC
Идентификатор кодека : 40
Продолжительность : 16 м. 13 с.
Вид битрейта : Переменный
Битрейт : 178 Кбит/сек
Максимальный битрейт : 192 Кбит/сек
Каналы : 2 канала
Расположение каналов : Front: L R
Частота : 48,0 КГц
Частота кадров : 46,875 кадров/сек (1024 SPF)
Метод сжатия : С потерями
Размер потока : 20,6 Мбайт (27%)
Язык : English
Default : Да
AlternateGroup/String : 1
Дата кодирования : UTC 2017-03-03 07:46:32
Дата пометки : UTC 2017-03-03 07:46:32
Общее
Полное имя : \[PHP UP] Продвинутый курс программирования (YII2)\00 Вебинары\016 вебинар за 30.09.2017.wmv
Формат : Windows Media
Размер файла : 72,4 Мбайт
Продолжительность : 42 м. 16 с.
Режим общего битрейта : Переменный
Общий поток : 239 Кбит/сек
Максимальный общий битрейт : 1341 Кбит/сек
Дата кодирования : UTC 2017-09-30 08:48:02.260
FSCSettings : 11
Видео
Идентификатор : 2
Формат : WMV1
Идентификатор кодека : WMV1
Идентификатор кодека/Информация : Windows Media Video 7
Описание кодека : Windows Media Video V7
Продолжительность : 42 м. 16 с.
Вид битрейта : Переменный
Битрейт : 186 Кбит/сек
Ширина : 1600 пикселей
Высота : 900 пикселей
Соотношение сторон : 16:9
Частота кадров : 10,000 кадров/сек
Битовая глубина : 8 бит
Бит/(Пиксели*Кадры) : 0.013
Размер потока : 56,2 Мбайт (78%)
Язык : English (United States)
Аудио
Идентификатор : 1
Формат : WMA
Версия формата : Version 2
Идентификатор кодека : 161
Идентификатор кодека/Информация : Windows Media Audio
Описание кодека : Windows Media Audio 9.2 - 48 kbps, 44 kHz, stereo 1-pass CBR
Продолжительность : 42 м. 16 с.
Вид битрейта : Постоянный
Битрейт : 48,0 Кбит/сек
Каналы : 2 канала
Частота : 44,1 КГц
Битовая глубина : 16 бит
Размер потока : 14,5 Мбайт (20%)
Язык : English (United States)
Общее
Полное имя : D:\downloads\курсы\[PHP UP] Продвинутый курс программирования (YII2)\00 Вебинары\009 вебинар за 15.07.2017.wmv
Формат : Windows Media
Размер файла : 43,1 Мбайт
Продолжительность : 30 м. 24 с.
Режим общего битрейта : Переменный
Общий поток : 198 Кбит/сек
Максимальный общий битрейт : 4289 Кбит/сек
Дата кодирования : UTC 2017-07-15 08:32:47.537
FSCSettings : 34
Видео
Идентификатор : 2
Формат : VC-1
Профиль формата : MP@HL
Идентификатор кодека : WMV3
Идентификатор кодека/Информация : Windows Media Video 9
Идентификатор кодека/Подсказка : WMV3
Описание кодека : Windows Media Video 9
Вид битрейта : Переменный
Битрейт : 121 Кбит/сек
Ширина : 1920 пикселей
Высота : 1080 пикселей
Соотношение сторон : 16:9
Режим частоты кадров : Переменный
Номинальная частота кадров : 25,000 кадров/сек
Битовая глубина : 8 бит
Метод сжатия : С потерями
Язык : English (United States)
Аудио
Идентификатор : 1
Формат : WMA
Версия формата : Version 2
Идентификатор кодека : 161
Идентификатор кодека/Информация : Windows Media Audio
Описание кодека : Windows Media Audio 9.2 - 96 kbps, 44 kHz, stereo 1-pass CBR
Продолжительность : 30 м. 24 с.
Вид битрейта : Постоянный
Битрейт : 96,0 Кбит/сек
Каналы : 2 канала
Частота : 44,1 КГц
Битовая глубина : 16 бит
Размер потока : 20,9 Мбайт (48%)
Язык : English (United States)

Дополнительная информация:

В раздаче имеются архивы! В них содержится исходники проектов.

Программа курса:

Блок 1: Новейшая инфраструктура в сфере веб-разработки.
Урок № 1. Настройка рабочего окружения. Виртуальные машины (VirtualBox). Установка и настройка LAMP и LEMP окружений.
Урок № 2. Настройка сайтов на виртуальных машинах. Vagrant, Puphpet.
Уроки № 3-5. Система контроля версий Git: репозиторий, версии, фиксации, ветки, слияния веток, решения конфликтов, работа с удаленным репозиторием.
Уроки № 6-7. Менеджер зависимостей Composer. Пример управления пакетами в приложении. Создание собственного пакета.
Блок 2: Принципы работы современных PHP-фреймворков на примере Yii 2
Урок № 8. Конфигурирование виртуальной машины, создание проекта на основе шаблона Yii app advanced. Первое знакомство и "Hello world".
Урок № 9. Понятие приложения. Основные встроенные компоненты. Создание собственного компонента.
Урок № 10. Консольные приложения. Миграции БД. Планировщик задач cron.
Урок № 11. Модели. Валидация данных. Сценарии моделей. Трейты в PHP.
Урок № 12. Псеводнимы (aliases). Ресурсы (assets). Виджеты (widgets).
Урок № 13. Helpers. Шаблоны (layouts).
Урок № 14. Использование ActiveForm для создания форм. Работа с БД: data access objects (DAO).
Урок № 15. Работа с БД: ActiveRecord. Использование связанных моделей.
Урок № 16: Создание CRUD операций. Работа с генератором кода Gii, полезные виджеты и приемы.
Урок № 17. Создание механизма регистрации, аутентификации.
Урок № 18. События (events). Поведения (behaviors). Работа с почтовым сервером.
Урок № 19. Создание системы полнотекстового поиска с использованием MySQL, Sphinx.
Урок № 20. Основы безопасности веб-приложений. Основные виды угроз (SQL injection, XSS, CSRF и т.д.) и методы борьбы с ними.
Блок 3: Разработка собственного веб-сервиса
Уроки № 20-30. Разработка полноценного веб-сервиса с использованием полученных ранее знаний.
Тема: социальная сеть для обмена фотографиями.
Конечно же, мы не сможем построить полноценный аналог Instagram, но реализуем основные функции и спроектируем грамотную архитектуру.
В работе мы будем применять лучшие практики и решения, следить за качеством и чистотой кода.
Также в практике будет:
Регистрация пользователей через Facebook.
Механизм подписок, реализация при помощи Redis.
Загрузка и принципы хранения файлов пользователей.
Механизм лайков с использованием AJAX.
Формирование ленты новостей с учетом высокого быстродействия.
Система жалоб, панель администратора.
Интернационализация (i18n) интерфейса.
Система доступа на основе ролей (RBAC).
Тестирование приложений при помощи Codeception. Примеры написания unit, functional тестов.
Полная инструкция по разворачиванию и настройке готового проекта на VPS сервере.
Огромное количество домашних заданий и возможность изменить систему на свой вкус.
На выходе Вы получите собственный работающий сервис,
а репозиторий с кодом станет отличным дополнением к резюме.
Также в курсе мы будем много работать с ОС Linux Ubuntu.
Скриншоты:
Скачать .torrent

Для того, чтобы скачать торрент-файл

Виктор Зинченко - PHP UP (2017)

с нашего сайта, Вам необходимо Войти на сайт под своим логином! Если у Вас ещё нет логина, тогда Вам нужно сначала Зарегистрироваться!

Как скачивать? · Что такое торрент? · Рейтинг и ограничения

Dorfman

Спасибо за торрент!
Показать сообщения:    
Ответить на тему

Виктор Зинченко - PHP UP (2017) скачать торрент (torrent), видеоуроки, тренинги, обучающее видео и видеокурсы

Текущее время: Сегодня 00:04

Часовой пояс: GMT + 4



Вы не можете начинать темы
Вы не можете отвечать на сообщения
Вы не можете редактировать свои сообщения
Вы не можете удалять свои сообщения
Вы не можете голосовать в опросах
Вы не можете прикреплять файлы к сообщениям
Вы не можете скачивать файлы