Иван Горохов - Workshop Moscow (2016)

Ответить на тему
 
Автор Сообщение

Yulya ®

Иван Горохов | Workshop Moscow (2016) CamRip [H.264]- Автор (режиссер): Иван Горохов
Жанр: Съемка и обработка фото
Описание:
Двухдневный воркшоп от Ивана Гороха:
    - Секреты съемки
    - Использование различных источников света
    - Обработка фото в фотошопе
    - Автоматизация времени и сохранение времени
    - Как увеличить ваши доходы в несколько раз
    - Создание дизайна и покрытий
    - Секреты поощрения фотографа в соц. сетях
    - Мастер класс по разработке учета инстаграм
Продолжительность: 04:40:52
Качество видео: CamRip
Видео: AVC/H.264, 960x540, ~1166 Kbps
Аудио: AAC, 2 ch, 256 Kbps

Mediainfo:

General
Complete name : Иван Горохов - Workshop Moscow (2016)\01 - Съемка.mp4
Format : MPEG-4
Format profile : Base Media / Version 2
Codec ID : mp42 (mp41/mp42/isom)
File size : 742 MiB
Duration : 1 h 13 min
Overall bit rate mode : Variable
Overall bit rate : 1 417 kb/s
Movie name : Мой фильм
Video
ID : 2
Format : AVC
Format/Info : Advanced Video Codec
Format profile : High@L3.1
Format settings, CABAC : Yes
Format settings, ReFrames : 2 frames
Format settings, GOP : M=1, N=30
Codec ID : avc1
Codec ID/Info : Advanced Video Coding
Duration : 1 h 13 min
Bit rate mode : Variable
Bit rate : 1 166 kb/s
Maximum bit rate : 768 kb/s
Width : 960 pixels
Height : 540 pixels
Display aspect ratio : 16:9
Frame rate mode : Constant
Frame rate : 25.000 FPS
Color space : YUV
Chroma subsampling : 4:2:0
Bit depth : 8 bits
Scan type : Progressive
Bits/(Pixel*Frame) : 0.090
Stream size : 610 MiB (82%)
Title : Core Media Video
Encoded date : UTC 2017-02-06 13:33:45
Tagged date : UTC 2017-02-06 13:48:17
Color range : Limited
Color primaries : BT.601 NTSC
Transfer characteristics : BT.709
Matrix coefficients : BT.601
Audio
ID : 1
Format : AAC
Format/Info : Advanced Audio Codec
Format profile : LC
Codec ID : 40
Duration : 1 h 13 min
Source duration : 1 h 13 min
Bit rate mode : Constant
Bit rate : 256 kb/s
Channel(s) : 2 channels
Channel positions : Front: L R
Sampling rate : 48.0 kHz
Frame rate : 46.875 FPS (1024 spf)
Compression mode : Lossy
Stream size : 131 MiB (18%)
Source stream size : 131 MiB (18%)
Title : Core Media Audio
Language : Russian
Скриншоты:
Скачать .torrent

Для того, чтобы скачать торрент-файл

Иван Горохов - Workshop Moscow (2016)

с нашего сайта, Вам необходимо Войти на сайт под своим логином! Если у Вас ещё нет логина, тогда Вам нужно сначала Зарегистрироваться!

Как скачивать? · Что такое торрент? · Рейтинг и ограничения

Показать сообщения:    
Ответить на тему

Иван Горохов - Workshop Moscow (2016) скачать торрент (torrent), видеоуроки, тренинги, обучающее видео и видеокурсы

Текущее время: Сегодня 20:26

Часовой пояс: GMT + 4



Вы не можете начинать темы
Вы не можете отвечать на сообщения
Вы не можете редактировать свои сообщения
Вы не можете удалять свои сообщения
Вы не можете голосовать в опросах
Вы не можете прикреплять файлы к сообщениям
Вы не можете скачивать файлы