HTML Academy - Интенсивный онлайн-курс «Продвинутый HTML и CSS» (2017)

Ответить на тему
 
Автор Сообщение

Yulya ®

HTML Academy | Интенсивный онлайн-курс «Продвинутый HTML и CSS» (2017) PCRec [H.264] - Автор (режиссер): HTML Academy
Жанр: Веб-дизайн, HTML, CSS
Описание:
Во время курса вы будете работать как профессиональные верстальщики: создадите разметку по методологии БЭМ, будете писать CSS-код на препроцессорах, сделаете адаптивную сетку, поработаете с адаптивной и ретиновой графикой и подготовите автоматизацию сборки проекта для публикации.
Продолжительность: 24:08:11
Качество видео: PCRec
Видео: AVC/H.264, 1152-1920x720-1080, 293-1012 Kbps
Аудио: AAC, 2 ch, 235-256 Kbps, VBR

Mediainfo:

Общее
Полное имя : D:\[HTML Academy] Продвинутый HTML и CSS\08 Погружение в автоматизацию\Скринкасты\Сборка Less на Grunt.mp4
Формат : MPEG-4
Профиль формата : Base Media / Version 2
Идентификатор кодека : mp42 (mp42/mp41/isom/avc1)
Размер файла : 10,3 Мбайт
Продолжительность : 2 м. 41 с.
Режим общего битрейта : Переменный
Общий поток : 533 Кбит/сек
Дата кодирования : UTC 2017-09-25 14:42:50
Дата пометки : UTC 2017-09-25 14:42:50
Видео
Идентификатор : 1
Формат : AVC
Формат/Информация : Advanced Video Codec
Профиль формата : High@L3.2
Параметр CABAC формата : Да
Параметр RefFrames формата : 5 кадров
Идентификатор кодека : avc1
Идентификатор кодека/Информация : Advanced Video Coding
Продолжительность : 2 м. 41 с.
Битрейт : 293 Кбит/сек
Ширина : 1152 пикселя
Высота : 720 пикселей
Соотношение сторон : 16:10
Режим частоты кадров : Постоянный
Частота кадров : 30,000 кадров/сек
Цветовое пространство : YUV
Субдискретизация насыщенности : 4:2:0
Битовая глубина : 8 бит
Тип развёртки : Прогрессивная
Бит/(Пиксели*Кадры) : 0.012
Размер потока : 5,65 Мбайт (55%)
Библиотека кодирования : x264 core 150 r10 df79067
Настройки программы : cabac=1 / ref=5 / deblock=1:0:0 / analyse=0x3:0x113 / me=hex / subme=8 / psy=1 / psy_rd=1.00:0.00 / mixed_ref=1 / me_range=16 / chroma_me=1 / trellis=2 / 8x8dct=1 / cqm=0 / deadzone=21,11 / fast_pskip=1 / chroma_qp_offset=-2 / threads=22 / lookahead_threads=3 / sliced_threads=0 / nr=0 / decimate=1 / interlaced=0 / bluray_compat=0 / stitchable=1 / constrained_intra=0 / bframes=3 / b_pyramid=2 / b_adapt=1 / b_bias=0 / direct=3 / weightb=1 / open_gop=0 / weightp=2 / keyint=infinite / keyint_min=30 / scenecut=40 / intra_refresh=0 / rc_lookahead=50 / rc=crf / mbtree=1 / crf=20.0 / qcomp=0.60 / qpmin=5 / qpmax=69 / qpstep=4 / vbv_maxrate=2750 / vbv_bufsize=7500 / crf_max=0.0 / nal_hrd=none / filler=0 / ip_ratio=1.40 / aq=1:1.00
Дата кодирования : UTC 2017-09-25 14:42:50
Дата пометки : UTC 2017-09-25 14:42:50
Цветовой диапазон : Limited
Основные цвета : BT.709
Характеристики трансфера : BT.709
Коэффициенты матрицы : BT.709
Аудио
Идентификатор : 2
Формат : AAC
Формат/Информация : Advanced Audio Codec
Профиль формата : LC
Идентификатор кодека : 40
Продолжительность : 2 м. 41 с.
Вид битрейта : Переменный
Битрейт : 235 Кбит/сек
Каналы : 2 канала
Расположение каналов : Front: L R
Частота : 48,0 КГц
Частота кадров : 46,875 кадров/сек (1024 SPF)
Метод сжатия : С потерями
Размер потока : 4,54 Мбайт (44%)
Дата кодирования : UTC 2017-09-25 14:42:50
Дата пометки : UTC 2017-09-25 14:42:50
Общее
Полное имя : D:\[HTML Academy] Продвинутый HTML и CSS\01 Вводный\Скринкасты\Как сделать репозиторий из любого проекта.mp4
Формат : MPEG-4
Профиль формата : Base Media / Version 2
Идентификатор кодека : mp42 (mp42/mp41/isom/avc1)
Размер файла : 69,6 Мбайт
Продолжительность : 7 м. 38 с.
Режим общего битрейта : Переменный
Общий поток : 1272 Кбит/сек
Дата кодирования : UTC 2017-09-18 15:18:53
Дата пометки : UTC 2017-09-18 15:18:53
Видео
Идентификатор : 1
Формат : AVC
Формат/Информация : Advanced Video Codec
Профиль формата : High@L4
Параметр CABAC формата : Да
Параметр RefFrames формата : 4 кадра
Идентификатор кодека : avc1
Идентификатор кодека/Информация : Advanced Video Coding
Продолжительность : 7 м. 38 с.
Битрейт : 1012 Кбит/сек
Ширина : 1920 пикселей
Высота : 1080 пикселей
Соотношение сторон : 16:9
Режим частоты кадров : Постоянный
Частота кадров : 25,000 кадров/сек
Цветовое пространство : YUV
Субдискретизация насыщенности : 4:2:0
Битовая глубина : 8 бит
Тип развёртки : Прогрессивная
Бит/(Пиксели*Кадры) : 0.020
Размер потока : 55,4 Мбайт (80%)
Библиотека кодирования : x264 core 150 r10 df79067
Настройки программы : cabac=1 / ref=4 / deblock=1:0:0 / analyse=0x3:0x113 / me=hex / subme=8 / psy=1 / psy_rd=1.00:0.00 / mixed_ref=1 / me_range=16 / chroma_me=1 / trellis=2 / 8x8dct=1 / cqm=0 / deadzone=21,11 / fast_pskip=1 / chroma_qp_offset=-2 / threads=34 / lookahead_threads=5 / sliced_threads=0 / nr=0 / decimate=1 / interlaced=0 / bluray_compat=0 / stitchable=1 / constrained_intra=0 / bframes=3 / b_pyramid=2 / b_adapt=1 / b_bias=0 / direct=3 / weightb=1 / open_gop=0 / weightp=2 / keyint=infinite / keyint_min=25 / scenecut=40 / intra_refresh=0 / rc_lookahead=50 / rc=crf / mbtree=1 / crf=20.0 / qcomp=0.60 / qpmin=5 / qpmax=69 / qpstep=4 / vbv_maxrate=5500 / vbv_bufsize=15000 / crf_max=0.0 / nal_hrd=none / filler=0 / ip_ratio=1.40 / aq=1:1.00
Дата кодирования : UTC 2017-09-18 15:18:53
Дата пометки : UTC 2017-09-18 15:18:53
Цветовой диапазон : Limited
Основные цвета : BT.709
Характеристики трансфера : BT.709
Коэффициенты матрицы : BT.709
Аудио
Идентификатор : 2
Формат : AAC
Формат/Информация : Advanced Audio Codec
Профиль формата : LC
Идентификатор кодека : 40
Продолжительность : 7 м. 38 с.
Вид битрейта : Переменный
Битрейт : 256 Кбит/сек
Каналы : 2 канала
Расположение каналов : Front: L R
Частота : 48,0 КГц
Частота кадров : 46,875 кадров/сек (1024 SPF)
Метод сжатия : С потерями
Размер потока : 14,0 Мбайт (20%)
Дата кодирования : UTC 2017-09-18 15:18:53
Дата пометки : UTC 2017-09-18 15:18:53

Дополнительная информация:

В раздаче имеются архивы! В них содержится макеты.
Скриншоты:
Скачать .torrent

Для того, чтобы скачать торрент-файл

HTML Academy - Интенсивный онлайн-курс «Продвинутый HTML и CSS» (2017)

с нашего сайта, Вам необходимо Войти на сайт под своим логином! Если у Вас ещё нет логина, тогда Вам нужно сначала Зарегистрироваться!

Как скачивать? · Что такое торрент? · Рейтинг и ограничения

Показать сообщения:    
Ответить на тему

HTML Academy - Интенсивный онлайн-курс «Продвинутый HTML и CSS» (2017) скачать торрент (torrent), видеоуроки, тренинги, обучающее видео и видеокурсы

Текущее время: Сегодня 14:01

Часовой пояс: GMT + 4



Вы не можете начинать темы
Вы не можете отвечать на сообщения
Вы не можете редактировать свои сообщения
Вы не можете удалять свои сообщения
Вы не можете голосовать в опросах
Вы не можете прикреплять файлы к сообщениям
Вы не можете скачивать файлы