Артём Исламов - Веб-разработчик 10.0 (2017)

Ответить на тему
 
Автор Сообщение

Yulya ®

Артём Исламов | Веб-разработчик 10.0 (2017) PCRec [H.264/720p-LQ]- Автор (режиссер): Артём Исламов
Жанр: Веб-разработка, HTML, CSS
Описание:
За 6 недель обучения мы подробно разберем все этапы создания сайтов, научимся готовить прототипы, получим навыки создания и работы с дизайн-макетом PSD.
Что вы будете уметь после курса?
• Поймете как устроен сайт и разберетесь с этапами его создания;
• Научитесь разрезать и готовить дизайн-макет для дальнейшей работы;
• Сверстаете свой первый макет;
• Получите навыки работы с библиотекой Bootstrap 3.
Продолжительность: 27:05:29
Качество видео: PCRec
Видео: AVC/H.264, 1280x720, ~136-1196 Kbps
Аудио: AAC, 2 ch, 126-256 Kbps

Mediainfo:

Общее
Полное имя : D:\[Артём Исламов] Веб-разработчик 10.0\Модуль 1\Ответы на вопросы по курсу.MP4
Формат : MPEG-4
Профиль формата : Base Media / Version 2
Идентификатор кодека : mp42 (isom/mp42)
Размер файла : 119 Мбайт
Продолжительность : 59 м. 12 с.
Режим общего битрейта : Переменный
Общий поток : 282 Кбит/сек
Дата кодирования : UTC 2017-09-19 16:39:00
Дата пометки : UTC 2017-09-19 16:39:00
gsst : 0
gstd : 3552583
Видео
Идентификатор : 1
Формат : AVC
Формат/Информация : Advanced Video Codec
Профиль формата : Main@L3.1
Параметр CABAC формата : Да
Параметр RefFrames формата : 3 кадра
Идентификатор кодека : avc1
Идентификатор кодека/Информация : Advanced Video Coding
Продолжительность : 59 м. 12 с.
Битрейт : 153 Кбит/сек
Ширина : 1280 пикселей
Высота : 720 пикселей
Соотношение сторон : 16:9
Режим частоты кадров : Постоянный
Частота кадров : 30,000 кадров/сек
Цветовое пространство : YUV
Субдискретизация насыщенности : 4:2:0
Битовая глубина : 8 бит
Тип развёртки : Прогрессивная
Бит/(Пиксели*Кадры) : 0.006
Размер потока : 64,7 Мбайт (54%)
Заголовок : ISO Media file produced by Google Inc. Created on: 09/19/2017.
Дата кодирования : UTC 2017-09-19 16:39:00
Дата пометки : UTC 2017-09-19 16:39:00
Цветовой диапазон : Limited
Основные цвета : BT.709
Характеристики трансфера : BT.709
Коэффициенты матрицы : BT.709
Аудио
Идентификатор : 2
Формат : AAC
Формат/Информация : Advanced Audio Codec
Профиль формата : LC
Идентификатор кодека : 40
Продолжительность : 59 м. 12 с.
Вид битрейта : Переменный
Битрейт : 126 Кбит/сек
Каналы : 2 канала
Расположение каналов : Front: L R
Частота : 44,1 КГц
Частота кадров : 43,066 кадра/сек (1024 SPF)
Метод сжатия : С потерями
Размер потока : 53,2 Мбайт (45%)
Заголовок : ISO Media file produced by Google Inc. Created on: 09/19/2017.
Дата кодирования : UTC 2017-09-19 16:39:00
Дата пометки : UTC 2017-09-19 16:39:00

Дополнительная информация:

В раздаче имеются архивы! В них содержится домашние задания к модулям.
Скриншоты:
Скачать .torrent

Для того, чтобы скачать торрент-файл

Артём Исламов - Веб-разработчик 10.0 (2017)

с нашего сайта, Вам необходимо Войти на сайт под своим логином! Если у Вас ещё нет логина, тогда Вам нужно сначала Зарегистрироваться!

Как скачивать? · Что такое торрент? · Рейтинг и ограничения

Показать сообщения:    
Ответить на тему

Артём Исламов - Веб-разработчик 10.0 (2017) скачать торрент (torrent), видеоуроки, тренинги, обучающее видео и видеокурсы

Текущее время: Сегодня 01:07

Часовой пояс: GMT + 4



Вы не можете начинать темы
Вы не можете отвечать на сообщения
Вы не можете редактировать свои сообщения
Вы не можете удалять свои сообщения
Вы не можете голосовать в опросах
Вы не можете прикреплять файлы к сообщениям
Вы не можете скачивать файлы