HighLights - Основы веб-дизайна (2016)

Ответить на тему
 
Автор Сообщение

Yulya ®

HighLights | Основы веб-дизайна (2016) PCRec [H.264]- Автор (режиссер): HighLights
Жанр: Дизайн
Описание:
Этот курс идеален для начинающих! Также подойдет тем, кто хочет углубить свои знания и улучшить качество работ. На этом курсе много практики в виде домашних заданий. В финале курса вы создадите дизайн собственного сайта!
Продолжительность: 17:19:33
Качество видео: PCRec
Видео: AVC/H.264, 1152-2880x720-1800, 947-1394 Kbps
Аудио: AAC, 2 ch, 171-196 Kbps

Mediainfo:

Общее
Полное имя : D:\[HighLights] Основы веб-дизайна\Урок №4. Подбор шрифтов и иконок\Видео-записи урока\7 - Практика.mp4
Формат : MPEG-4
Профиль формата : Base Media
Идентификатор кодека : isom (isom/iso2/avc1/mp41)
Размер файла : 262 Мбайт
Продолжительность : 29 м. 29 с.
Режим общего битрейта : Переменный
Общий поток : 1241 Кбит/сек
Дата кодирования : UTC 2017-02-11 07:13:46
Дата пометки : UTC 2017-02-11 07:13:46
Программа кодирования : Lavf57.71.100
Видео
Идентификатор : 1
Формат : AVC
Формат/Информация : Advanced Video Codec
Профиль формата : Main@L3.1
Параметр CABAC формата : Да
Параметр RefFrames формата : 2 кадра
Параметр GOP формата : M=1, N=25
Идентификатор кодека : avc1
Идентификатор кодека/Информация : Advanced Video Coding
Продолжительность : 29 м. 29 с.
Битрейт : 1056 Кбит/сек
Ширина : 1152 пикселя
Высота : 720 пикселей
Соотношение сторон : 16:10
Режим частоты кадров : Постоянный
Частота кадров : 25,000 кадров/сек
Цветовое пространство : YUV
Субдискретизация насыщенности : 4:2:0
Битовая глубина : 8 бит
Тип развёртки : Прогрессивная
Бит/(Пиксели*Кадры) : 0.051
Размер потока : 223 Мбайт (85%)
Язык : English
Дата кодирования : UTC 2017-02-11 07:13:46
Дата пометки : UTC 2017-02-11 07:13:46
Аудио
Идентификатор : 2
Формат : AAC
Формат/Информация : Advanced Audio Codec
Профиль формата : LC
Идентификатор кодека : 40
Продолжительность : 29 м. 29 с.
Вид битрейта : Переменный
Битрейт : 181 Кбит/сек
Максимальный битрейт : 192 Кбит/сек
Каналы : 2 канала
Расположение каналов : Front: L R
Частота : 48,0 КГц
Частота кадров : 46,875 кадров/сек (1024 SPF)
Метод сжатия : С потерями
Размер потока : 38,2 Мбайт (15%)
Язык : English
Default : Да
AlternateGroup/String : 1
Дата кодирования : UTC 2017-02-11 07:13:46
Дата пометки : UTC 2017-02-11 07:13:46
Общее
Полное имя : D:\[HighLights] Основы веб-дизайна\Урок №5. Дизайн веб-интерфейса\Домашнее задание\Дополнительное\Видео-уроки\Видео-урок 1.1 - кнопка в стиле Flat.mp4
Формат : MPEG-4
Профиль формата : Base Media
Идентификатор кодека : isom (isom/iso2/avc1/mp41)
Размер файла : 166 Мбайт
Продолжительность : 18 м. 39 с.
Режим общего битрейта : Переменный
Общий поток : 1243 Кбит/сек
Дата кодирования : UTC 2015-10-07 08:43:17
Дата пометки : UTC 2015-10-07 08:43:17
Программа кодирования : Lavf57.71.100
Видео
Идентификатор : 1
Формат : AVC
Формат/Информация : Advanced Video Codec
Профиль формата : Main@L4
Параметр CABAC формата : Да
Параметр RefFrames формата : 2 кадра
Параметр GOP формата : M=1, N=25
Идентификатор кодека : avc1
Идентификатор кодека/Информация : Advanced Video Coding
Продолжительность : 18 м. 39 с.
Duration_FirstFrame : 33 мс.
Битрейт : 1057 Кбит/сек
Ширина : 1440 пикселей
Высота : 900 пикселей
Соотношение сторон : 16:10
Режим частоты кадров : Постоянный
Частота кадров : 30,000 кадров/сек
Цветовое пространство : YUV
Субдискретизация насыщенности : 4:2:0
Битовая глубина : 8 бит
Тип развёртки : Прогрессивная
Бит/(Пиксели*Кадры) : 0.027
Размер потока : 141 Мбайт (85%)
Дата кодирования : UTC 2015-10-07 08:43:17
Дата пометки : UTC 2015-10-07 08:43:17
Аудио
Идентификатор : 2
Формат : AAC
Формат/Информация : Advanced Audio Codec
Профиль формата : LC
Идентификатор кодека : 40
Продолжительность : 18 м. 39 с.
Вид битрейта : Переменный
Битрейт : 179 Кбит/сек
Максимальный битрейт : 192 Кбит/сек
Каналы : 2 канала
Расположение каналов : Front: L R
Частота : 44,1 КГц
Частота кадров : 43,066 кадра/сек (1024 SPF)
Метод сжатия : С потерями
Размер потока : 23,9 Мбайт (14%)
Default : Да
AlternateGroup/String : 1
Дата кодирования : UTC 2015-10-07 08:43:17
Дата пометки : UTC 2015-10-07 08:43:17
Общее
Полное имя : D:\[HighLights] Основы веб-дизайна\Урок №6. Создание главного экрана (шапки)\Диалог веб-дизайнера и разработчика\Видео.mp4
Формат : MPEG-4
Профиль формата : Base Media
Идентификатор кодека : isom (isom/iso2/avc1/mp41)
Размер файла : 387 Мбайт
Продолжительность : 44 м. 9 с.
Общий поток : 1224 Кбит/сек
Дата кодирования : UTC 2017-04-13 11:13:46
Дата пометки : UTC 2017-04-13 11:13:46
Программа кодирования : Lavf57.71.100
Видео
Идентификатор : 1
Формат : AVC
Формат/Информация : Advanced Video Codec
Профиль формата : Main@L4
Параметр CABAC формата : Да
Параметр RefFrames формата : 2 кадра
Идентификатор кодека : avc1
Идентификатор кодека/Информация : Advanced Video Coding
Продолжительность : 44 м. 9 с.
Битрейт : 1021 Кбит/сек
Ширина : 1920 пикселей
Высота : 1080 пикселей
Соотношение сторон : 16:9
Режим частоты кадров : Переменный
Частота кадров : 29,970 кадров/сек
Цветовое пространство : YUV
Субдискретизация насыщенности : 4:2:0
Битовая глубина : 8 бит
Тип развёртки : Прогрессивная
Бит/(Пиксели*Кадры) : 0.016
Размер потока : 323 Мбайт (83%)
Язык : English
Дата кодирования : UTC 2017-04-13 11:13:46
Дата пометки : UTC 2017-04-13 11:13:46
Аудио
Идентификатор : 2
Формат : AAC
Формат/Информация : Advanced Audio Codec
Профиль формата : LC
Идентификатор кодека : 40
Продолжительность : 44 м. 9 с.
Вид битрейта : Постоянный
Битрейт : 196 Кбит/сек
Каналы : 2 канала
Расположение каналов : Front: L R
Частота : 48,0 КГц
Частота кадров : 46,875 кадров/сек (1024 SPF)
Метод сжатия : С потерями
Размер потока : 61,9 Мбайт (16%)
Язык : English
Default : Да
AlternateGroup/String : 1
Дата кодирования : UTC 2017-04-13 11:13:46
Дата пометки : UTC 2017-04-13 11:13:46
Общее
Полное имя : D:\[HighLights] Основы веб-дизайна\Урок №1. Введение в профессию\Всё для работы с фотошопом\Вводный видео-урок по фотошопу.mp4
Формат : MPEG-4
Профиль формата : Base Media
Идентификатор кодека : isom (isom/iso2/avc1/mp41)
Размер файла : 267 Мбайт
Продолжительность : 29 м. 56 с.
Режим общего битрейта : Переменный
Общий поток : 1248 Кбит/сек
Дата кодирования : UTC 2016-06-09 09:36:51
Дата пометки : UTC 2016-06-09 09:36:51
Программа кодирования : Lavf57.71.100
Видео
Идентификатор : 1
Формат : AVC
Формат/Информация : Advanced Video Codec
Профиль формата : Main@L5.1
Параметр CABAC формата : Да
Параметр RefFrames формата : 2 кадра
Параметр GOP формата : M=1, N=25
Идентификатор кодека : avc1
Идентификатор кодека/Информация : Advanced Video Coding
Продолжительность : 29 м. 56 с.
Битрейт : 1060 Кбит/сек
Ширина : 2880 пикселей
Высота : 1800 пикселей
Соотношение сторон : 16:10
Режим частоты кадров : Постоянный
Частота кадров : 30,000 кадров/сек
Цветовое пространство : YUV
Субдискретизация насыщенности : 4:2:0
Битовая глубина : 8 бит
Тип развёртки : Прогрессивная
Бит/(Пиксели*Кадры) : 0.007
Размер потока : 227 Мбайт (85%)
Язык : English
Дата кодирования : UTC 2016-06-09 09:36:51
Дата пометки : UTC 2016-06-09 09:36:51
Аудио
Идентификатор : 2
Формат : AAC
Формат/Информация : Advanced Audio Codec
Профиль формата : LC
Идентификатор кодека : 40
Продолжительность : 29 м. 56 с.
Вид битрейта : Переменный
Битрейт : 181 Кбит/сек
Максимальный битрейт : 192 Кбит/сек
Каналы : 2 канала
Расположение каналов : Front: L R
Частота : 48,0 КГц
Частота кадров : 46,875 кадров/сек (1024 SPF)
Метод сжатия : С потерями
Размер потока : 38,7 Мбайт (14%)
Язык : English
Default : Да
AlternateGroup/String : 1
Дата кодирования : UTC 2016-06-09 09:36:51
Дата пометки : UTC 2016-06-09 09:36:51

Подробный план занятий:

ЗАНЯТИЕ № 1. ВВЕДЕНИЕ В ПРОФЕССИЮ
— Понятие веб-дизайна.
— Необходимые компетенции дизайнера.
— Основные принципы современного дизайна.
— Источники вдохновения и полезные ресурсы.
— Типы сайтов.
— Этапы создания сайта.
ДЗ: Разобрать 5 примеров макетов сайтов по принципам современного дизайна (из презентации) .
ЗАНЯТИЕ № 2. СОЗДАНИЕ ПРОТОТИПА.
— Прототип и его задачи.
— Виды прототипов и их различия.
— Wireframe и его назначение.
— Ресурсы для скачивания и вдохновения.
ДЗ: Создать прототип для своего проекта.
ЗАНЯТИЕ № 3. РАБОТА С ЦВЕТОМ И ИЗОБРАЖЕНИЕМ.
— Эмоциональная составляющая сайта.
— Цвет и его роль в дизайне.
— Изображения и их роль в дизайне.
— Мудборд и его задачи.
— Ресурсы для скачивания и вдохновения.
ДЗ: Создать 2-3 мудборда для своего проекта.
ЗАНЯТИЕ № 4. ПОДБОР ШРИФТОВ И ИКОНОК.
— Цели и задачи иконок в оформлении сайта.
— Типы иконок: сервисные, образные, favicon.
— Обзор стилей иконок: outline, solid, flat, realistic.
— Типографика - задачи и функции. Особенности веб-типографики.
— Виды шрифтов.
— Ресурсы для скачивания.
— Практическая часть: подбор шрифтов и иконок для проекта.
ДЗ: Создать блок для своего проекта с подобранными шрифтами и иконками.
ЗАНЯТИЕ № 5. ДИЗАЙН ИНТЕРФЕЙСА.
— Понятие интерфейса.
— Основные элементы интерфейса.
— Основные принципы хорошего интерфейса.
— Ресурсы для скачивания и вдохновения.
— Практическая часть: отрисовка элементов интерфейса – кнопок и форм заявок
ДЗ: Создать несколько элементов интерфейса для своего проекта
ЗАНЯТИЕ № 6. СОЗДАНИЕ ГЛАВНОГО ЭКРАНА САЙТА.
— Составляющие компоненты главного экрана сайта.
— Основные принципы создания запоминающегося главного экрана.
— Примеры хорошего дизайна главных страниц.
— Соединение структуры сайта (прототипа) и его эмоциональной начинки (мудборда).
— Ресурсы для вдохновения.
ДЗ: Оформить главный экран своего проекта.
ЗАНЯТИЕ № 7. СОЗДАНИЕ ДИЗАЙН МАКЕТА.
— Модульные сетки и выравнивание контента.
— Адаптивный дизайн.
— Основы композиции разделов сайта.
— Расположение элементов, акценты и иерархия восприятия.
— Управление вниманием пользователя.
— Разбор композиционных решений на примерах.
— Практическая часть: создание landing page в Adobe Photoshop.
ДЗ: Оформить страницу дипломного проекта.
ЗАНЯТИЕ № 8. СВОБОДНОЕ ПЛАВАНИЕ
— Рынок труда: дизайн студии, фриланс, бизнес.
— Работа в команде. Как начать работать в дизайн студии.
— Основы оформления портфолио и подачи проектов.
— Инструменты wow effect: анимация, paralax, видео контент, интерактив.
— Как сделать так что бы мир узнал о вас?
ДЗ: Завершить дизайн дипломного проекта и оформить его в мокап.
Скриншоты:
Скачать .torrent

Для того, чтобы скачать торрент-файл

HighLights - Основы веб-дизайна (2016)

с нашего сайта, Вам необходимо Войти на сайт под своим логином! Если у Вас ещё нет логина, тогда Вам нужно сначала Зарегистрироваться!

Как скачивать? · Что такое торрент? · Рейтинг и ограничения

Показать сообщения:    
Ответить на тему

HighLights - Основы веб-дизайна (2016) скачать торрент (torrent), видеоуроки, тренинги, обучающее видео и видеокурсы

Текущее время: Сегодня 00:25

Часовой пояс: GMT + 4



Вы не можете начинать темы
Вы не можете отвечать на сообщения
Вы не можете редактировать свои сообщения
Вы не можете удалять свои сообщения
Вы не можете голосовать в опросах
Вы не можете прикреплять файлы к сообщениям
Вы не можете скачивать файлы