Павел Шульга - SEO 2017, 8 основных шагов (2017)

Ответить на тему
 
Автор Сообщение

Yulya ®

Павел Шульга | SEO 2017, 8 основных шагов (2017) HDRip [H.264/720p-LQ]- Автор (режиссер): Павел Шульга, SEO-Академия
Жанр: Мастер-класс, Вебинар
Описание:
1. Что такое SEO и какие сайты попадают в ТОП?
2. Аудит конкурентов. Сколько денег и сил нужно, чтобы попасть в ТОП-3.
3. Подбор максимального числа правильных запросов для продвижения.
4. Идеальная внутренняя оптимизация сайта.
5. Получение ссылок - за что не накажут в 2017 году.
6. 13 методов получения качественных бесплатных ссылок.
7. Влияние социальных сетей на продвижение Вашего сайта в 2017 году.
8. Поведенческие факторы как основной метод продвижения сайта.
Продолжительность: 02:32:44
Качество видео: HDRip
Видео: AVC/H.264, 1280x720, ~2694 Kbps
Аудио: AAC, 2 ch, 192 Kbps

Mediainfo:

General
Complete name : C:\Users\edkozuto\Videos\seo2017.mp4
Format : MPEG-4
Format profile : Base Media
Codec ID : isom (isom/iso2/avc1/mp41)
File size : 3.08 GiB
Duration : 2 h 32 min
Overall bit rate : 2 888 kb/s
Writing application : Lavf57.25.100
Video
ID : 1
Format : AVC
Format/Info : Advanced Video Codec
Format profile : Main@L3.1
Format settings : 2 Ref Frames
Format settings, CABAC : No
Format settings, RefFrames : 2 frames
Codec ID : avc1
Codec ID/Info : Advanced Video Coding
Duration : 2 h 32 min
Bit rate : 2 694 kb/s
Width : 1 280 pixels
Height : 720 pixels
Display aspect ratio : 16:9
Frame rate mode : Constant
Frame rate : 24.000 FPS
Color space : YUV
Chroma subsampling : 4:2:0
Bit depth : 8 bits
Scan type : Progressive
Bits/(Pixel*Frame) : 0.122
Stream size : 2.87 GiB (93%)
Audio
ID : 2
Format : AAC
Format/Info : Advanced Audio Codec
Format profile : LC
Codec ID : mp4a-40-2
Duration : 2 h 32 min
Source duration : 2 h 32 min
Bit rate mode : Constant
Bit rate : 192 kb/s
Channel(s) : 2 channels
Channel positions : Front: L R
Sampling rate : 48.0 kHz
Frame rate : 46.875 FPS (1024 SPF)
Compression mode : Lossy
Stream size : 208 MiB (7%)
Source stream size : 208 MiB (7%)
Default : Yes
Alternate group : 1
Скриншоты:
Скачать .torrent

Для того, чтобы скачать торрент-файл

Павел Шульга - SEO 2017, 8 основных шагов (2017)

с нашего сайта, Вам необходимо Войти на сайт под своим логином! Если у Вас ещё нет логина, тогда Вам нужно сначала Зарегистрироваться!

Как скачивать? · Что такое торрент? · Рейтинг и ограничения

Показать сообщения:    
Ответить на тему

Павел Шульга - SEO 2017, 8 основных шагов (2017) скачать торрент (torrent), видеоуроки, тренинги, обучающее видео и видеокурсы

Текущее время: Сегодня 17:14

Часовой пояс: GMT + 4



Вы не можете начинать темы
Вы не можете отвечать на сообщения
Вы не можете редактировать свои сообщения
Вы не можете удалять свои сообщения
Вы не можете голосовать в опросах
Вы не можете прикреплять файлы к сообщениям
Вы не можете скачивать файлы