WayUp - Веб-верстальщик. Код фрилансера (2017)

Ответить на тему
 
Автор Сообщение

Yulya ®

WayUp | Веб-верстальщик. Код фрилансера (2017) PCRec - Автор (режиссер): WayUp
Производство: Андрей Гаврилов
Жанр: Вёрстка, Веб-программирование
Описание:
Освойте профессию верстальщика и веб-разработчика на профессиональном уровне, с постоянной поддержкой эксперта, домашними заданиями и гарантией заработка на фрилансе.
Вы получите все необходимые навыки для успешной работы верстальщиком.
Продолжительность: 60:15:27
Качество видео: PCRec
Видео: Другой, 1280-1600x720-900, ~318-1749 Kbps
Аудио: Другой, 2 ch, 64-352 Kbps

Mediainfo:

General
Complete name : .\[WayUp] Веб-верстальщик. Код фрилансера (2017)\5.Javascript и jQuery\5.1\5.1.Основы Javascript.mp4
Format : MPEG-4
Format profile : Base Media
Codec ID : isom (isom/iso2/avc1/mp41)
File size : 359 MiB
Duration : 2 h 9 min
Overall bit rate : 389 kb/s
Writing application : Lavf54.29.104
Video
ID : 1
Format : AVC
Format/Info : Advanced Video Codec
Format profile : High@L3.1
Format settings, CABAC : Yes
Format settings, ReFrames : 4 frames
Codec ID : avc1
Codec ID/Info : Advanced Video Coding
Duration : 2 h 9 min
Bit rate : 318 kb/s
Nominal bit rate : 384 kb/s
Width : 1 280 pixels
Height : 720 pixels
Display aspect ratio : 16:9
Frame rate mode : Constant
Frame rate : 20.000 FPS
Color space : YUV
Chroma subsampling : 4:2:0
Bit depth : 8 bits
Scan type : Progressive
Bits/(Pixel*Frame) : 0.017
Stream size : 294 MiB (82%)
Writing library : x264 core 132
Encoding settings : cabac=1 / ref=1 / deblock=1:0:0 / analyse=0x3:0x113 / me=hex / subme=2 / psy=1 / psy_rd=1.00:0.00 / mixed_ref=0 / me_range=16 / chroma_me=1 / trellis=0 / 8x8dct=1 / cqm=0 / deadzone=21,11 / fast_pskip=1 / chroma_qp_offset=0 / threads=4 / lookahead_threads=1 / sliced_threads=0 / nr=0 / decimate=1 / interlaced=0 / bluray_compat=0 / constrained_intra=0 / bframes=3 / b_pyramid=2 / b_adapt=1 / b_bias=0 / direct=1 / weightb=1 / open_gop=0 / weightp=1 / keyint=80 / keyint_min=8 / scenecut=40 / intra_refresh=0 / rc_lookahead=10 / rc=cbr / mbtree=1 / bitrate=384 / ratetol=1.0 / qcomp=0.60 / qpmin=0 / qpmax=69 / qpstep=4 / vbv_maxrate=384 / vbv_bufsize=512 / nal_hrd=none / ip_ratio=1.40 / aq=1:1.00
Audio
ID : 2
Format : AAC
Format/Info : Advanced Audio Codec
Format profile : LC
Codec ID : 40
Duration : 2 h 9 min
Bit rate mode : Constant
Bit rate : 64.0 kb/s
Channel(s) : 2 channels
Channel positions : Front: L R
Sampling rate : 44.1 kHz
Frame rate : 43.066 FPS (1024 spf)
Compression mode : Lossy
Stream size : 59.1 MiB (16%)
Default : Yes
Alternate group : 1
General
Complete name : .\[WayUp] Веб-верстальщик. Код фрилансера (2017)\7.Хостинг и CMS\7.2\Бонусный урок.avi
Format : AVI
Format/Info : Audio Video Interleave
File size : 817 MiB
Duration : 54 min 6 s
Overall bit rate : 2 111 kb/s
Video
ID : 0
Format : tsc2
Codec ID : tsc2
Duration : 54 min 6 s
Bit rate : 1 749 kb/s
Width : 1 600 pixels
Height : 900 pixels
Display aspect ratio : 16:9
Frame rate : 30.000 FPS
Bits/(Pixel*Frame) : 0.040
Stream size : 677 MiB (83%)
Audio
ID : 1
Format : ADPCM
Codec ID : 11
Codec ID/Hint : Intel
Duration : 54 min 6 s
Bit rate mode : Constant
Bit rate : 352.8 kb/s
Channel(s) : 2 channels
Sampling rate : 44.1 kHz
Bit depth : 4 bits
Stream size : 137 MiB (17%)
Interleave, duration : 1000 ms (30.00 video frames)
Interleave, preload duration : 971 ms

Подробная информация о курсе

ДОСТУПНА ПО ССЫЛКЕ
Скриншоты:
Скачать .torrent

Для того, чтобы скачать торрент-файл

WayUp - Веб-верстальщик. Код фрилансера (2017)

с нашего сайта, Вам необходимо Войти на сайт под своим логином! Если у Вас ещё нет логина, тогда Вам нужно сначала Зарегистрироваться!

Как скачивать? · Что такое торрент? · Рейтинг и ограничения

Показать сообщения:    
Ответить на тему

WayUp - Веб-верстальщик. Код фрилансера (2017) скачать торрент (torrent), видеоуроки, тренинги, обучающее видео и видеокурсы

Текущее время: Сегодня 22:30

Часовой пояс: GMT + 4



Вы не можете начинать темы
Вы не можете отвечать на сообщения
Вы не можете редактировать свои сообщения
Вы не можете удалять свои сообщения
Вы не можете голосовать в опросах
Вы не можете прикреплять файлы к сообщениям
Вы не можете скачивать файлы