Накрошаев Олег - Секреты ретуши методом частотного разложения изображения в Photoshop (2017)

Ответить на тему
 
Автор Сообщение

Yulya ®

Накрошаев Олег | Секреты ретуши методом частотного разложения изображения в Photoshop (2017) PCRec [H.264/720p-LQ]- Автор (режиссер): Накрошаев Олег
Жанр: Ретушь фото
Описание:
Большинство уроков посвящено так называемой глянцевой ретуши фотографий и осуществляется при помощи масок и различных видов размытия.
Это делает кожу на портрете слишком мыльной, неестественной и явно видно, что она обработана.
Для определённых форматов такой результат является желаемым, к примеру для глянцевых журналов.
Но гораздо лучше сделать естественную обработку снимка.
Это достигается с помощью метода ЧАСТОТНОГО РАЗЛОЖЕНИЯ ИЗОБРАЖЕНИЯ В ФОТОШОПЕ.
Суть метода — получение структуры слоёв, на которых расположены, независимо друг от друга, разные детали изображения.
Продолжительность: 07:18:45
Качество видео: PCRec
Видео: AVC/H.264, 1280x720, ~209 kb/s
Аудио: AC3, 2 ch, 235 kb/s

Mediainfo:

General
Complete name : E:\Накрошаев Олег - Секреты ретуши методом частотного разложения изображения в Photoshop (2017)\курс\01. Суть метода частотного разложения (теория).mp4
Format : MPEG-4
Format profile : Base Media / Version 2
Codec ID : mp42 (mp42/mp41/isom/avc1)
File size : 23.4 MiB
Duration : 7 min 18 s
Overall bit rate mode : Variable
Overall bit rate : 447 kb/s
Encoded date : UTC 2017-08-30 07:35:26
Tagged date : UTC 2017-08-30 07:35:26
Video
ID : 1
Format : AVC
Format/Info : Advanced Video Codec
Format profile : High@L3.2
Format settings, CABAC : Yes
Format settings, ReFrames : 5 frames
Format settings, GOP : M=4, N=45
Codec ID : avc1
Codec ID/Info : Advanced Video Coding
Duration : 7 min 18 s
Bit rate : 209 kb/s
Width : 1 280 pixels
Height : 720 pixels
Display aspect ratio : 16:9
Frame rate mode : Constant
Frame rate : 15.000 FPS
Color space : YUV
Chroma subsampling : 4:2:0
Bit depth : 8 bits
Scan type : Progressive
Bits/(Pixel*Frame) : 0.015
Stream size : 10.9 MiB (47%)
Writing library : x264 core 150 r10 df79067
Encoding settings : cabac=1 / ref=5 / deblock=1:0:0 / analyse=0x3:0x113 / me=hex / subme=8 / psy=1 / psy_rd=1.00:0.00 / mixed_ref=1 / me_range=16 / chroma_me=1 / trellis=2 / 8x8dct=1 / cqm=0 / deadzone=21,11 / fast_pskip=1 / chroma_qp_offset=-2 / threads=22 / lookahead_threads=3 / sliced_threads=0 / nr=0 / decimate=1 / interlaced=0 / bluray_compat=0 / stitchable=1 / constrained_intra=0 / bframes=3 / b_pyramid=2 / b_adapt=1 / b_bias=0 / direct=3 / weightb=1 / open_gop=0 / weightp=2 / keyint=infinite / keyint_min=15 / scenecut=40 / intra_refresh=0 / rc_lookahead=50 / rc=2pass / mbtree=1 / bitrate=209 / ratetol=1.0 / qcomp=0.60 / qpmin=5 / qpmax=69 / qpstep=4 / cplxblur=20.0 / qblur=0.5 / vbv_maxrate=2750 / vbv_bufsize=7500 / nal_hrd=none / filler=0 / ip_ratio=1.40 / aq=1:1.00
Encoded date : UTC 2017-08-30 07:35:26
Tagged date : UTC 2017-08-30 07:35:26
Color range : Limited
Color primaries : BT.709
Transfer characteristics : BT.709
Matrix coefficients : BT.709
Audio
ID : 2
Format : AAC
Format/Info : Advanced Audio Codec
Format profile : LC
Codec ID : 40
Duration : 7 min 18 s
Bit rate mode : Variable
Bit rate : 235 kb/s
Channel(s) : 2 channels
Channel positions : Front: L R
Sampling rate : 48.0 kHz
Frame rate : 46.875 FPS (1024 spf)
Compression mode : Lossy
Stream size : 12.3 MiB (53%)
Encoded date : UTC 2017-08-30 07:35:26
Tagged date : UTC 2017-08-30 07:35:26
Скриншоты:
Скачать .torrent

Для того, чтобы скачать торрент-файл

Накрошаев Олег - Секреты ретуши методом частотного разложения изображения в Photoshop (2017)

с нашего сайта, Вам необходимо Войти на сайт под своим логином! Если у Вас ещё нет логина, тогда Вам нужно сначала Зарегистрироваться!

Как скачивать? · Что такое торрент? · Рейтинг и ограничения

Показать сообщения:    
Ответить на тему

Накрошаев Олег - Секреты ретуши методом частотного разложения изображения в Photoshop (2017) скачать торрент (torrent), видеоуроки, тренинги, обучающее видео и видеокурсы

Текущее время: Сегодня 05:57

Часовой пояс: GMT + 4



Вы не можете начинать темы
Вы не можете отвечать на сообщения
Вы не можете редактировать свои сообщения
Вы не можете удалять свои сообщения
Вы не можете голосовать в опросах
Вы не можете прикреплять файлы к сообщениям
Вы не можете скачивать файлы